<?xml version="1.0" standalone="no"?>
<!DOCTYPE svg PUBLIC "-//W3C//DTD SVG 1.1//EN" "http://www.w3.org/Graphics/SVG/1.1/DTD/svg11.dtd" >
<svg xmlns="http://www.w3.org/2000/svg" xmlns:xlink="http://www.w3.org/1999/xlink" version="1.1">
<metadata>
Created by FontForge 20190801 at Thu Jan 17 11:47:14 2013
 By www-data
Copyright (c) 2012 by Glenjan. All rights reserved.
</metadata>
<defs>
<font id="IdealistSans" horiz-adv-x="590" >
  <font-face 
    font-family="IdealistSans"
    font-weight="400"
    font-stretch="normal"
    units-per-em="1000"
    panose-1="2 0 0 0 0 0 0 0 0 0"
    ascent="750"
    descent="-250"
    x-height="500"
    cap-height="650"
    bbox="-79 -277 6315 1009"
    underline-thickness="50"
    underline-position="-100"
    unicode-range="U+0020-25CA"
  />
<missing-glyph horiz-adv-x="510" 
d="M433 400l-328 -284l109 190l-109 94h328z" />
    <glyph glyph-name="germandbls" unicode="&#x17f;s" horiz-adv-x="635" 
d="M65 541q0 41 18 76t49 60t73.5 39t92.5 14q52 0 88 -13.5t58 -35.5t32 -50.5t10 -58.5q0 -53 -27 -86.5t-73 -52.5q-35 -14 -49 -28t-14 -38q0 -29 25 -44.5t67 -23.5q97 -18 142.5 -54t45.5 -102q0 -39 -16.5 -68t-45.5 -47.5t-69 -28t-87 -9.5q-27 0 -48.5 1.5t-41 5.5
t-38 10.5t-39.5 16.5l24 76q73 -35 143 -35q72 0 101 19t29 60q0 30 -31.5 46t-94.5 28q-34 6 -62.5 17.5t-49 29t-32 42t-11.5 57.5q0 29 8.5 49.5t22.5 35.5t32 25t38 18q37 15 53 35t16 46q0 21 -8 35.5t-22 24t-33 14t-41 4.5q-38 0 -65 -9t-44 -24.5t-25 -37t-8 -46.5
v-534h-93v541z" />
    <glyph glyph-name="fb.liga" unicode="fb" horiz-adv-x="999" 
d="M107 500v33q0 43 15 79t42 62.5t64.5 41t82.5 14.5q63 0 112 -17.5t95 -52.5v-194q38 23 79.5 33.5t92.5 10.5q122 0 185.5 -64t63.5 -191q0 -60 -22.5 -109t-62 -83.5t-93.5 -53.5t-118 -19q-35 0 -64 3t-54.5 9.5t-49.5 16.5t-50 24v573q-26 19 -52 26.5t-60 7.5
q-62 0 -87.5 -31t-25.5 -83v-36h152l-4 -77l-148 5v-428h-93v423l-87 12v65h87zM518 95q17 -8 31.5 -13t28.5 -8t30 -4.5t36 -1.5q92 0 146.5 47.5t54.5 140.5q0 90 -39 134.5t-124 44.5q-48 0 -88.5 -11t-75.5 -36v-293z" />
    <glyph glyph-name="ff.liga" unicode="ff" horiz-adv-x="671" 
d="M107 500v33q0 43 13.5 79t39 62.5t62 41t81.5 14.5q56 0 95 -11.5t77 -36.5q25 23 58.5 35.5t75.5 12.5q50 0 87 -10t74 -33l-45 -73q-26 18 -49 27t-55 9q-63 0 -88.5 -30.5t-25.5 -83.5v-36h153l-4 -77l-149 5v-428h-93v421l-214 8v-429h-93v423l-87 12v65h87zM414 500
v33q0 21 3 41t10 37q-50 39 -114 39q-62 0 -87.5 -31t-25.5 -83v-36h214z" />
    <glyph glyph-name="ffi.liga" unicode="ffi" horiz-adv-x="855" 
d="M697 422l-190 7v-429h-93v421l-214 8v-429h-93v423l-87 12v65h87v33q0 43 13.5 79t39 62.5t62 41t81.5 14.5q56 0 95 -11.5t77 -36.5q25 23 58.5 35.5t75.5 12.5q50 0 87 -9.5t74 -33.5l-45 -73q-26 18 -49 27t-55 9q-63 0 -88.5 -30.5t-25.5 -83.5v-36h283v-500h-93v422
zM414 500v33q0 21 3 41t10 37q-50 39 -114 39q-62 0 -87.5 -31t-25.5 -83v-36h214z" />
    <glyph glyph-name="ffj.liga" unicode="ffj" horiz-adv-x="855" 
d="M107 500v33q0 43 13.5 79t39 62.5t62 41t81.5 14.5q56 0 95 -11.5t77 -36.5q25 23 58.5 35.5t75.5 12.5q50 0 87 -9.5t74 -33.5l-45 -72q-26 17 -49 26t-55 9q-63 0 -88.5 -30.5t-25.5 -83.5v-36h283v-529q0 -101 -52 -156.5t-149 -57.5l-7 79q59 4 86.5 32t27.5 86v468
l-189 7v-429h-93v421l-214 8v-429h-93v423l-87 12v65h87zM414 500v33q0 21 3 41t10 37q-50 39 -114 39q-62 0 -87.5 -31t-25.5 -83v-36h214z" />
    <glyph glyph-name="fh.liga" unicode="fh" horiz-adv-x="966" 
d="M107 500v33q0 43 15 79t42 62.5t64.5 41t82.5 14.5q63 0 112 -17.5t95 -52.5v-232q35 44 82.5 63t98.5 19q104 0 155.5 -56.5t51.5 -162.5v-291h-93v292q0 66 -25 104t-89 38q-56 0 -100.5 -22t-80.5 -66v-346h-93v616q-26 19 -52 26.5t-60 7.5q-62 0 -87.5 -31
t-25.5 -83v-36h152l-4 -77l-148 5v-428h-93v423l-87 12v65h87z" />
    <glyph glyph-name="fi.liga" unicode="fi" horiz-adv-x="547" 
d="M107 500v33q0 43 13.5 79t38.5 62.5t61 41t81 14.5q50 0 87 -9.5t74 -33.5l-45 -73q-26 18 -49.5 27t-54.5 9q-62 0 -87.5 -31t-25.5 -83v-36h282v-500h-93v422l-189 7v-429h-93v423l-87 12v65h87z" />
    <glyph glyph-name="fj.liga" unicode="fj" horiz-adv-x="547" 
d="M107 500v33q0 43 13.5 79t38.5 62.5t61 41t81 14.5q48 0 86 -9t75 -34l-45 -71q-26 17 -49 25.5t-55 8.5q-62 0 -87.5 -31t-25.5 -83v-36h282v-529q0 -101 -51.5 -156.5t-148.5 -57.5l-7 79q59 4 86.5 32t27.5 86v468l-189 7v-429h-93v423l-87 12v65h87z" />
    <glyph glyph-name="fk.liga" unicode="fk" horiz-adv-x="940" 
d="M518 292l80 53l174 155h109l2 -10l-217 -189l227 -293l-3 -8h-105l-190 255l-77 -43v-212h-92v616q-26 19 -52.5 26.5t-60.5 7.5q-62 0 -87.5 -31t-25.5 -83v-36h152l-4 -77l-148 5v-428h-93v423l-87 12v65h87v33q0 43 15 79t42 62.5t64.5 41t82.5 14.5q63 0 112 -17.5
t95 -52.5v-368z" />
    <glyph glyph-name="fl.liga" unicode="fl" horiz-adv-x="602" 
d="M107 500v33q0 43 15 79t42 62.5t64.5 41t82.5 14.5q63 0 112 -17.5t95 -52.5v-516q0 -39 14.5 -51.5t59.5 -12.5v-85q-6 -1 -12 -1h-12q-40 0 -67 11.5t-44 32.5t-24.5 51.5t-7.5 68.5v458q-26 19 -52 26.5t-60 7.5q-62 0 -87.5 -31t-25.5 -83v-36h152l-4 -77l-148 5
v-428h-93v423l-87 12v65h87z" />
    <glyph glyph-name="ft.liga" unicode="ft" horiz-adv-x="730" 
d="M680 423l-196 8v-262q0 -57 26 -81t67 -24q33 0 59.5 9t54.5 26l30 -67q-31 -22 -67.5 -32t-86.5 -10q-86 0 -131.5 45t-45.5 133v254l-190 7v-429h-93v423l-87 12v65h87v33q0 43 13.5 79t38.5 62.5t61 41t81 14.5q56 0 98.5 -14.5t84.5 -49.5v-166h199zM338 500l34 13
l47 83q-41 54 -106 54q-62 0 -87.5 -31t-25.5 -83v-36h138z" />
    <glyph glyph-name="ii.liga" unicode="i&#x457;" horiz-adv-x="446" 
d="M158 500v-500h-93v500h93zM223 691q29 0 45.5 -17t16.5 -43q0 -25 -16.5 -42.5t-45.5 -17.5q-28 0 -45 17.5t-17 42.5q0 26 17 43t45 17zM416 691q29 0 45.5 -17t16.5 -43q0 -25 -16.5 -42.5t-45.5 -17.5q-28 0 -45 17.5t-17 42.5q0 26 17 43t45 17zM381 500v-500h-93
v500h93zM30 691q29 0 45.5 -17t16.5 -43q0 -25 -16.5 -42.5t-45.5 -17.5q-28 0 -45 17.5t-17 42.5q0 26 17 43t45 17z" />
    <glyph glyph-name="lsb.liga" unicode="&#x17f;b" horiz-adv-x="901" 
d="M65 535q0 43 13.5 79t39 61.5t62 40t82.5 14.5q50 0 85.5 -10t72.5 -33v-221q38 23 79.5 33.5t92.5 10.5q122 0 185.5 -64t63.5 -191q0 -60 -22.5 -109t-62 -83.5t-93.5 -53.5t-118 -19q-35 0 -64 3t-54.5 9.5t-49.5 16.5t-50 24v600q-24 7 -56 7q-62 0 -87.5 -31
t-25.5 -83v-536h-93v535zM420 95q17 -8 31.5 -13t28.5 -8t30 -4.5t36 -1.5q92 0 146.5 47.5t54.5 140.5q0 90 -39 134.5t-124 44.5q-48 0 -88.5 -11t-75.5 -36v-293z" />
    <glyph glyph-name="lsh.liga" unicode="&#x17f;h" horiz-adv-x="868" 
d="M65 535q0 43 13.5 79t39 61.5t62 40t82.5 14.5q50 0 85.5 -10t72.5 -33v-259q35 44 82.5 63t98.5 19q104 0 155.5 -56.5t51.5 -162.5v-291h-93v292q0 66 -25 104t-89 38q-56 0 -100.5 -22t-80.5 -66v-346h-93v643q-24 7 -56 7q-62 0 -87.5 -31t-25.5 -83v-536h-93v535z
" />
    <glyph glyph-name="lsi.liga" unicode="&#x17f;i" horiz-adv-x="454" 
d="M296 500h93v-500h-93v500zM65 533q0 43 13.5 79t39 62.5t61.5 41t81 14.5q50 0 87 -10t74 -33l-45 -71q-23 17 -47.5 25.5t-56.5 8.5q-63 0 -88.5 -30.5t-25.5 -83.5v-536h-93v533z" />
    <glyph glyph-name="lsj.liga" unicode="&#x17f;j" horiz-adv-x="454" 
d="M65 533q0 43 13.5 79t39 62.5t61.5 41t81 14.5q50 0 87 -10t74 -33l-45 -74q-24 19 -52 28t-55 9q-62 0 -86.5 -31t-24.5 -83v-536h-93v533zM389 500v-529q0 -101 -52 -156.5t-149 -57.5l-7 79q59 4 86.5 32t27.5 86v546h94z" />
    <glyph glyph-name="lsk.liga" unicode="&#x17f;k" horiz-adv-x="842" 
d="M783 500l2 -10l-217 -189l227 -293l-3 -8h-105l-190 255l-77 -43v-212h-92v643q-13 4 -27.5 5.5t-29.5 1.5q-62 0 -87.5 -31t-25.5 -83v-536h-93v535q0 43 13.5 79t39 61.5t62 40t82.5 14.5q50 0 85.5 -10t72.5 -33v-395l80 53l174 155h109z" />
    <glyph glyph-name="lsl.liga" unicode="&#x17f;l" horiz-adv-x="503" 
d="M65 535q0 43 13.5 79t39 61.5t62 40t82.5 14.5q50 0 85.5 -10t72.5 -33v-543q0 -39 14 -51.5t59 -12.5v-84q-6 -1 -12 -1.5t-12 -0.5q-40 0 -67 11.5t-43.5 32.5t-23.5 51.5t-7 68.5v485q-24 7 -57 7q-62 0 -87.5 -31t-25.5 -83v-536h-93v535z" />
    <glyph glyph-name="lsls.liga" unicode="&#x17f;&#x17f;" horiz-adv-x="505" 
d="M65 533q0 45 14 81t40.5 62t63 40t81.5 14q42 0 71.5 -6.5t58.5 -23.5q47 30 111 30q50 0 87 -10t74 -33l-45 -70q-26 17 -48.5 25t-55.5 8q-63 0 -88.5 -30.5t-25.5 -83.5v-536h-93v533q0 57 25 104q-31 13 -63 13q-63 0 -88.5 -30.5t-25.5 -83.5v-536h-93v533z" />
    <glyph glyph-name="lslsi.liga" unicode="&#x17f;&#x17f;i" horiz-adv-x="709" 
d="M65 533q0 45 14 81t40.5 62t63 40t81.5 14q42 0 71.5 -6.5t58.5 -23.5q47 30 111 30q50 0 87 -10t74 -33l-45 -70q-24 18 -48 25.5t-56 7.5q-63 0 -88.5 -30.5t-25.5 -83.5v-536h-93v533q0 57 25 104q-31 13 -63 13q-63 0 -88.5 -30.5t-25.5 -83.5v-536h-93v533zM551 500
h93v-500h-93v500z" />
    <glyph glyph-name="lslsj.liga" unicode="&#x17f;&#x17f;j" horiz-adv-x="709" 
d="M65 533q0 45 14 81t40.5 62t63 40t81.5 14q42 0 71.5 -6.5t58.5 -23.5q47 30 111 30q50 0 87 -10t74 -33l-35 -74q-26 20 -52.5 28.5t-61.5 8.5q-63 0 -88.5 -30.5t-25.5 -83.5v-536h-93v533q0 57 25 104q-31 13 -63 13q-63 0 -88.5 -30.5t-25.5 -83.5v-536h-93v533z
M644 500v-529q0 -101 -52 -156.5t-149 -57.5l-7 79q59 4 86.5 32t27.5 86v546h94z" />
    <glyph glyph-name="lst.liga" unicode="&#x17f;t" horiz-adv-x="666" 
d="M616 423l-196 8v-262q0 -57 26 -81t67 -24q33 0 59.5 9t54.5 26l30 -67q-31 -22 -67.5 -32t-86.5 -10q-86 0 -131.5 45t-45.5 133v255l-78 11v35l68 43l45 88q-20 21 -45.5 35.5t-54.5 14.5q-55 0 -79 -30.5t-24 -83.5v-536h-93v535q0 43 13.5 79t38 61.5t59 40
t76.5 14.5q50 0 90.5 -17t77.5 -50v-163h199z" />
    <glyph glyph-name=".notdef" horiz-adv-x="510" 
d="M433 400l-328 -284l109 190l-109 94h328z" />
    <glyph glyph-name=".null" horiz-adv-x="0" 
 />
    <glyph glyph-name="nonmarkingreturn" horiz-adv-x="333" 
 />
    <glyph glyph-name="space" unicode=" " horiz-adv-x="286" 
 />
    <glyph glyph-name="exclam" unicode="!" horiz-adv-x="225" 
d="M160 679l-13 -509h-69l-13 509h95zM112 121q32 0 49.5 -19t17.5 -47q0 -29 -17.5 -46t-49.5 -17t-49 17t-17 46q0 28 17 47t49 19z" />
    <glyph glyph-name="quotedbl" unicode="&#x22;" horiz-adv-x="298" 
d="M45 650h86l-20 -183l-65 6zM167 650h86l-20 -193l-65 6z" />
    <glyph glyph-name="numbersign" unicode="#" horiz-adv-x="524" 
d="M238 524l-10 -99h77l11 105l72 -6l-10 -99h106l-3 -65h-109l-7 -73h110l-3 -64h-112l-11 -97l-71 5l9 92h-76l-11 -97l-72 5l9 92h-97l3 64h100l8 73h-102l3 65h103l12 105zM216 287h77l7 73h-77z" />
    <glyph glyph-name="dollar" unicode="$" horiz-adv-x="543" 
d="M316 673v-68q39 -4 72 -15t68 -34l-37 -69q-38 24 -75.5 34.5t-82.5 10.5q-34 0 -55 -6.5t-33 -17.5t-16 -25t-4 -29q0 -32 21 -49.5t57 -28.5l90 -27q76 -23 123 -68t47 -119q0 -67 -45 -113t-130 -58v-74h-85v71q-53 2 -97.5 14t-90.5 38l25 79q52 -29 97.5 -39.5
t93.5 -10.5q77 0 109 22.5t32 64.5q0 24 -6 41t-19.5 29.5t-34.5 21.5t-50 17l-97 27q-60 17 -94.5 59t-34.5 101q0 66 43 106.5t124 47.5v67h85z" />
    <glyph glyph-name="uni0025" unicode="%" horiz-adv-x="717" 
d="M557 474l-348 -496l-57 37l349 497zM179 231q-30 0 -57.5 10.5t-47.5 29t-32 44t-12 55.5t11.5 55.5t31.5 44.5t47 29.5t59 10.5q30 0 57.5 -11t47.5 -30t32 -44.5t12 -54.5q0 -30 -12 -55.5t-32.5 -44t-47.5 -29t-57 -10.5zM179 294q32 0 55 20t23 56q0 35 -21.5 56
t-56.5 21q-37 0 -58 -21.5t-21 -55.5t22 -55t57 -21zM538 -10q-30 0 -57.5 10.5t-47.5 29t-32 44t-12 55.5t11.5 55.5t31.5 44.5t47 29.5t59 10.5q30 0 57.5 -11t47.5 -30t32 -44.5t12 -54.5q0 -30 -12 -55.5t-32.5 -44t-47.5 -29t-57 -10.5zM538 53q32 0 55 20t23 56
q0 35 -21.5 56t-56.5 21q-37 0 -58 -21.5t-21 -55.5t22 -55t57 -21z" />
    <glyph glyph-name="ampersand" unicode="&#x26;" horiz-adv-x="714" 
d="M658 431l5 -71h-51q0 -39 -3 -70t-9 -57.5t-16 -51t-25 -49.5q58 -52 126 -61l-26 -79q-27 4 -47.5 9.5t-38 14t-33.5 20t-34 28.5q-47 -41 -96 -59t-115 -18q-54 0 -101 15t-81 42.5t-53.5 67t-19.5 88.5q0 60 32.5 106t83.5 72q-52 43 -52 115q0 30 15 56t42.5 45
t65 30t82.5 11q51 0 98 -11.5t95 -40.5l-39 -69q-66 46 -154 46q-59 0 -88 -19.5t-29 -51.5q0 -39 32 -68l267 -237q10 21 17 40t10.5 39t5 41.5t1.5 47.5l-90 15l6 64h217zM205 328q-74 -36 -74 -122q0 -32 12.5 -58t34 -45.5t50.5 -30t63 -10.5q52 0 87.5 13t66.5 42z" />
    <glyph glyph-name="quotesingle" unicode="'" horiz-adv-x="174" 
d="M45 650h89l-20 -193l-68 6z" />
    <glyph glyph-name="parenleft" unicode="(" horiz-adv-x="247" 
d="M217 675q-42 -86 -62.5 -174t-20.5 -188t20.5 -188t62.5 -174l-68 -33q-54 75 -81.5 176t-27.5 219t27.5 219t81.5 176z" />
    <glyph glyph-name="parenright" unicode=")" horiz-adv-x="247" 
d="M98 708q54 -75 81.5 -176t27.5 -219t-27.5 -219t-81.5 -176l-68 33q42 86 62.5 174t20.5 188t-20.5 188t-62.5 174z" />
    <glyph glyph-name="asterisk" unicode="*" horiz-adv-x="309" 
d="M186 670q14 -3 29 -11t26 -21l-42 -70l81 -12q0 -16 -4 -32t-12 -27l-73 14l10 -84q-8 -3 -18 -4.5t-19 -1.5q-14 0 -24 3l-10 82l-75 -39q-13 17 -18 32t-5 26l71 31l-59 59q14 24 47 39l56 -58z" />
    <glyph glyph-name="plus" unicode="+" horiz-adv-x="422" 
d="M252 497v-130h130v-76h-130v-130h-82v130h-130v76h130v130h82z" />
    <glyph glyph-name="comma" unicode="," horiz-adv-x="231" 
d="M42 -70q31 12 48 29.5t17 40.5q-30 0 -43.5 16.5t-13.5 37.5q0 10 3 20t10 18.5t18.5 14t28.5 5.5q35 0 53 -25.5t18 -62.5q0 -19 -7 -39.5t-20.5 -39t-34.5 -34t-49 -24.5z" />
    <glyph glyph-name="hyphen" unicode="-" horiz-adv-x="381" 
d="M341 303v-76h-301v76h301z" />
    <glyph glyph-name="period" unicode="." horiz-adv-x="233" 
d="M116 121q32 0 49.5 -19t17.5 -47q0 -29 -17.5 -46t-49.5 -17t-49 17t-17 46q0 28 17 47t49 19z" />
    <glyph glyph-name="slash" unicode="/" horiz-adv-x="302" 
d="M243 686l77 -25l-243 -697l-75 25z" />
    <glyph glyph-name="zero" unicode="0" horiz-adv-x="720" 
d="M680 325q0 -75 -24 -137t-66.5 -107t-101 -69.5t-128.5 -24.5t-128.5 24.5t-101 69.5t-66.5 107t-24 137t24 137t66.5 107t101 69.5t128.5 24.5t128.5 -24.5t101 -69.5t66.5 -107t24 -137zM136 325q0 -62 17 -110t47 -81t71 -50t89 -17t89 17t71 50t47 81t17 110t-17 110
t-47 81t-71 50.5t-89 17.5t-89 -17.5t-71 -50.5t-47 -81t-17 -110z" />
    <glyph glyph-name="one" unicode="1" horiz-adv-x="315" 
d="M250 650v-650h-93v545l-103 -52l-25 69l154 89z" />
    <glyph glyph-name="two" unicode="2" horiz-adv-x="548" 
d="M70 76l224 219q51 50 79 88.5t28 85.5q0 56 -35 84t-91 28q-53 0 -93.5 -13.5t-80.5 -45.5l-45 71q53 39 104.5 54.5t119.5 15.5q48 0 86.5 -13t66.5 -38t43 -60.5t15 -80.5q0 -57 -33 -112t-90 -110l-169 -160v-4h299v-85h-428v76z" />
    <glyph glyph-name="three" unicode="3" horiz-adv-x="545" 
d="M263 395q48 0 76 27.5t28 69.5q0 46 -32.5 69.5t-77.5 23.5q-50 0 -85.5 -11.5t-72.5 -41.5l-41 65q47 37 94.5 51.5t107.5 14.5q44 0 80.5 -12t63 -33.5t41 -51t14.5 -65.5q0 -40 -18.5 -76.5t-59.5 -54.5v-4q51 -18 82.5 -59.5t31.5 -104.5q0 -44 -16.5 -83t-47 -68.5
t-75.5 -46.5t-102 -17q-75 0 -128 18t-96 59l44 77q44 -41 83.5 -57t90.5 -16q33 0 61.5 9t49 26.5t32.5 42t12 54.5q0 63 -38.5 90.5t-96.5 27.5h-105v77h100z" />
    <glyph glyph-name="four" unicode="4" horiz-adv-x="580" 
d="M473 650v-425h74l-10 -83h-64v-142h-93v142h-345v68l327 446zM380 536l-7 1l-226 -312h233v311z" />
    <glyph glyph-name="five" unicode="5" horiz-adv-x="559" 
d="M469 650v-81h-297v-167q29 6 50.5 8.5t53.5 2.5q50 0 92 -14.5t72 -41.5t47 -65.5t17 -87.5q0 -45 -16.5 -84.5t-49 -69t-80.5 -46.5t-110 -17q-34 0 -62.5 3.5t-53.5 12t-48.5 21.5t-48.5 33l42 76q22 -18 41 -30.5t38.5 -20t41 -10.5t47.5 -3q87 0 126.5 36.5
t39.5 98.5q0 69 -41.5 99t-119.5 30q-44 0 -79 -6.5t-75 -20.5l-13 5v339h386z" />
    <glyph glyph-name="six" unicode="6" horiz-adv-x="561" 
d="M448 582q-62 0 -118 -13.5t-99 -42t-68 -73t-25 -106.5q34 30 74.5 46t95.5 16q44 0 82 -14.5t66 -41.5t44 -66t16 -87q0 -58 -21 -98.5t-54.5 -66t-75.5 -37t-85 -11.5q-54 0 -97.5 19.5t-74 59.5t-47.5 100.5t-17 142.5q0 90 31.5 156.5t85.5 110t126 65t153 21.5z
M140 272q0 -54 11 -93t31.5 -63.5t49 -36t63.5 -11.5q61 0 94 33t33 99q0 63 -32.5 97t-95.5 34q-51 0 -86.5 -15t-67.5 -44z" />
    <glyph glyph-name="seven" unicode="7" horiz-adv-x="511" 
d="M471 650v-58l-256 -592h-103l254 566h-321v84h426z" />
    <glyph glyph-name="eight" unicode="8" horiz-adv-x="567" 
d="M157 353q-32 17 -55 51.5t-23 79.5q0 40 15 73t42 56.5t64.5 36.5t83.5 13q41 0 78 -11.5t65 -33.5t44.5 -54t16.5 -73q0 -25 -7.5 -47t-18.5 -39.5t-25 -30.5t-27 -19v-4q52 -20 82 -61.5t30 -98.5q0 -49 -17 -87t-48 -64t-75 -39.5t-98 -13.5q-63 0 -108.5 15
t-74.5 41.5t-42.5 63t-13.5 79.5q0 57 30.5 100.5t81.5 62.5v4zM284 383q56 0 83.5 28t27.5 75q0 43 -25.5 74t-85.5 31q-30 0 -51 -8.5t-34.5 -22.5t-20 -33t-6.5 -41q0 -21 7 -39.5t21 -32.5t35 -22.5t49 -8.5zM284 311q-68 0 -106.5 -32t-38.5 -93q0 -26 7.5 -48.5
t25 -39.5t45 -26.5t67.5 -9.5q73 0 108 36t35 88q0 60 -36 92.5t-107 32.5z" />
    <glyph glyph-name="nine" unicode="9" horiz-adv-x="561" 
d="M102 68q65 0 123 14.5t101.5 44t69.5 72.5t28 100q-34 -30 -75.5 -44.5t-96.5 -14.5q-44 0 -82 14.5t-66 41.5t-44 66t-16 87q0 57 19.5 97.5t52 66t74 37.5t85.5 12q54 0 98.5 -18t76.5 -56.5t49.5 -99.5t17.5 -148q0 -90 -31 -156.5t-86 -110t-129 -65t-161 -21.5z
M422 381q0 100 -39 152t-114 52q-63 0 -97 -33t-34 -101q0 -63 32.5 -96.5t95.5 -33.5q51 0 87.5 15t68.5 45z" />
    <glyph glyph-name="colon" unicode=":" horiz-adv-x="233" 
d="M116 121q32 0 49.5 -19t17.5 -47q0 -29 -17.5 -46t-49.5 -17t-49 17t-17 46q0 28 17 47t49 19zM116 472q32 0 49.5 -19t17.5 -47q0 -29 -17.5 -46t-49.5 -17t-49 17t-17 46q0 28 17 47t49 19z" />
    <glyph glyph-name="semicolon" unicode=";" horiz-adv-x="233" 
d="M42 -70q31 12 48 29.5t17 40.5q-30 0 -43.5 16.5t-13.5 37.5q0 10 3 20t10 18.5t18.5 14t28.5 5.5q35 0 53 -25.5t18 -62.5q0 -19 -7 -39.5t-20.5 -39t-34.5 -34t-49 -24.5zM116 472q32 0 49.5 -19t17.5 -47q0 -29 -17.5 -46t-49.5 -17t-49 17t-17 46q0 28 17 47t49 19z
" />
    <glyph glyph-name="less" unicode="&#x3c;" horiz-adv-x="332" 
d="M292 456l-160 -133l160 -132l-58 -48l-199 161v38l199 161z" />
    <glyph glyph-name="equal" unicode="=" horiz-adv-x="383" 
d="M343 298v-74h-303v74h303zM343 440v-74h-303v74h303z" />
    <glyph glyph-name="greater" unicode="&#x3e;" horiz-adv-x="332" 
d="M292 342v-38l-199 -161l-58 47l160 133l-160 132l58 48z" />
    <glyph glyph-name="question" unicode="?" horiz-adv-x="537" 
d="M203 170q-14 28 -14 67q0 29 11 51t28.5 37.5t39 26.5t41.5 19q47 18 73 44.5t26 75.5q0 51 -39 82.5t-112 31.5q-51 0 -100 -20t-84 -56l-48 63q45 44 105.5 67t133.5 23q51 0 93.5 -12.5t73 -37.5t48 -63t17.5 -88q0 -46 -25.5 -87.5t-76.5 -67.5q-23 -12 -45.5 -21
t-40 -20.5t-28.5 -28.5t-11 -45v-41h-66zM236 121q32 0 49.5 -19t17.5 -47q0 -29 -17.5 -46t-49.5 -17t-49 17t-17 46q0 28 17 47t49 19z" />
    <glyph glyph-name="at" unicode="@" horiz-adv-x="769" 
d="M496 136q-47 -59 -128 -59q-78 0 -121 48t-43 124q0 33 13 63.5t36.5 53.5t56.5 36.5t73 13.5q33 0 57.5 -8.5t47.5 -25.5l24 24l35 -7v-187q0 -30 12.5 -45t35.5 -15q30 0 43.5 30t13.5 81q0 57 -19.5 101.5t-53.5 75t-80 46.5t-99 16q-58 0 -108.5 -17t-88 -50t-59 -80
t-21.5 -107q0 -59 19 -106t53 -79t81.5 -49t103.5 -17q64 0 116.5 11t95.5 35l24 -70q-53 -23 -110 -35.5t-126 -12.5t-131 20.5t-108.5 61t-73.5 101t-27 140.5q0 74 28 134.5t77 103t114.5 66t140.5 23.5q67 0 127.5 -21.5t106 -61.5t72.5 -98t27 -131q0 -81 -37.5 -127.5
t-106.5 -46.5q-67 0 -93 47zM474 326q-19 15 -39.5 20t-46.5 5q-50 0 -77 -27.5t-27 -75.5t22.5 -74.5t67.5 -26.5q64 0 100 45v134z" />
    <glyph glyph-name="A" unicode="A" horiz-adv-x="707" 
d="M406 650l278 -650h-99l-85 197h-299l-81 -197h-98l279 650h105zM232 275h238l-114 283h-9z" />
    <glyph glyph-name="B" unicode="B" horiz-adv-x="601" 
d="M292 650q45 0 85.5 -9.5t70.5 -30.5t48 -54t18 -79q0 -38 -15.5 -69t-50.5 -51v-4q111 -56 111 -168q0 -45 -19 -79.5t-50.5 -58t-73.5 -35.5t-87 -12h-264v650h227zM159 77h161q28 0 54.5 5.5t46.5 18.5t32 34t12 52q0 60 -38 89.5t-99 29.5h-169v-229zM159 380h148
q55 0 84.5 25.5t29.5 68.5q0 51 -32.5 75.5t-86.5 24.5h-143v-194z" />
    <glyph glyph-name="C" unicode="C" horiz-adv-x="660" 
d="M584 518q-48 35 -93.5 51t-99.5 16q-58 0 -105.5 -19.5t-81 -54t-51.5 -82t-18 -103.5q0 -63 20 -110.5t54.5 -80t81 -48.5t99.5 -16q30 0 56 3t50 10.5t48 19.5t50 30l28 -82q-54 -37 -110.5 -51t-131.5 -14q-65 0 -126.5 20.5t-109 62t-76 105.5t-28.5 151
q0 75 28 137.5t76 106.5t112 68.5t135 24.5q73 0 126.5 -17t104.5 -55z" />
    <glyph glyph-name="D" unicode="D" horiz-adv-x="700" 
d="M306 650q82 0 147.5 -22.5t111.5 -64.5t70.5 -103t24.5 -139q0 -80 -28 -140t-77.5 -100t-118.5 -60.5t-150 -20.5h-221v650h241zM160 79h134q58 0 108 13t86 42t56.5 75t20.5 112q0 67 -18.5 114.5t-52.5 78t-82 44.5t-106 14h-146v-493z" />
    <glyph glyph-name="E" unicode="E" horiz-adv-x="541" 
d="M65 650h419v-79h-323v-194h290v-78h-290v-220h337v-79h-433v650z" />
    <glyph glyph-name="F" unicode="F" horiz-adv-x="539" 
d="M484 650v-77h-323v-199h290v-77h-290v-297h-96v650h419z" />
    <glyph glyph-name="G" unicode="G" horiz-adv-x="700" 
d="M645 347v-280q-57 -42 -123 -61t-145 -19q-69 0 -130.5 22t-107 64.5t-72.5 105.5t-27 146q0 75 27.5 137.5t75 107t110.5 69t135 24.5q73 0 132.5 -17t111.5 -55l-38 -73q-48 35 -100 50.5t-106 15.5q-58 0 -105 -19.5t-80 -54t-50.5 -82t-17.5 -103.5
q0 -59 19.5 -106.5t53.5 -80.5t80 -51t99 -18q51 0 90 8.5t76 28.5v166h-170v75h262z" />
    <glyph glyph-name="H" unicode="H" horiz-adv-x="669" 
d="M604 650v-650h-95v303h-349v-303h-95v650h95v-270h349v270h95z" />
    <glyph glyph-name="I" unicode="I" horiz-adv-x="225" 
d="M160 650v-650h-95v650h95z" />
    <glyph glyph-name="J" unicode="J" horiz-adv-x="244" 
d="M179 650v-632q0 -67 -17 -113.5t-47.5 -77t-72.5 -47t-91 -23.5l-30 78q40 6 71 16.5t51.5 30.5t31 53.5t10.5 85.5v629h94z" />
    <glyph glyph-name="K" unicode="K" horiz-adv-x="635" 
d="M161 650v-341l313 341h119l-252 -265l279 -385h-113l-229 320l-117 -111v-209h-96v650h96z" />
    <glyph glyph-name="L" unicode="L" horiz-adv-x="504" 
d="M467 80v-80h-402v650h96v-570h306z" />
    <glyph glyph-name="M" unicode="M" horiz-adv-x="761" 
d="M182 650l198 -296l202 296h114v-650h-92v368l2 164h-9l-199 -291h-39l-197 291h-8l1 -164v-368h-90v650h117z" />
    <glyph glyph-name="N" unicode="N" horiz-adv-x="734" 
d="M164 650l417 -531l-3 170v361h91v-650h-102l-418 533l6 -198v-335h-90v650h99z" />
    <glyph glyph-name="O" unicode="O" horiz-adv-x="780" 
d="M740 325q0 -75 -27 -137t-74.5 -107t-111.5 -69.5t-137 -24.5q-74 0 -137.5 24.5t-111 69.5t-74.5 107t-27 137t27 137t74.5 107t111 69.5t137.5 24.5q73 0 137 -24.5t111.5 -69.5t74.5 -107t27 -137zM136 325q0 -62 20.5 -110t55 -81t80.5 -50.5t98 -17.5t98 17.5
t80.5 50.5t55 81t20.5 110t-20.5 110t-55 81t-80.5 50.5t-98 17.5t-98 -17.5t-80.5 -50.5t-55 -81t-20.5 -110z" />
    <glyph glyph-name="P" unicode="P" horiz-adv-x="594" 
d="M291 650q55 0 102 -14t81.5 -40t54 -64t19.5 -87q0 -50 -19 -88t-53 -64t-81.5 -39.5t-103.5 -13.5h-131v-240h-95v650h226zM160 317h118q85 0 130 29t45 99q0 65 -45 96.5t-130 31.5h-118v-256z" />
    <glyph glyph-name="Q" unicode="Q" horiz-adv-x="780" 
d="M698 -119l-393 112q-57 16 -105.5 46t-84 72.5t-55.5 96t-20 117.5q0 75 27 137t74.5 107t111 69.5t137.5 24.5q73 0 137 -24.5t111.5 -69.5t74.5 -107t27 -137q0 -57 -17 -106.5t-47.5 -90t-72 -70.5t-90.5 -47l209 -44zM136 325q0 -62 20.5 -110t55 -81t80.5 -50.5
t98 -17.5t98 17.5t80.5 50.5t55 81t20.5 110t-20.5 110t-55 81t-80.5 50.5t-98 17.5t-98 -17.5t-80.5 -50.5t-55 -81t-20.5 -110z" />
    <glyph glyph-name="R" unicode="R" horiz-adv-x="631" 
d="M330 650q49 0 90.5 -12.5t71.5 -36.5t47 -58t17 -77q0 -58 -36 -104.5t-107 -65.5l188 -296h-111l-174 279h-156v-279h-95v650h265zM160 356h156q64 0 104.5 28t40.5 82t-39 80.5t-107 26.5h-155v-217z" />
    <glyph glyph-name="S" unicode="S" horiz-adv-x="574" 
d="M453 531q-41 29 -81 41.5t-91 12.5q-38 0 -62 -8.5t-38 -21.5t-19.5 -30t-5.5 -33q0 -36 23.5 -60t79.5 -35l93 -19q82 -17 130.5 -66t48.5 -132q0 -42 -17.5 -77t-50.5 -61t-80.5 -40.5t-107.5 -14.5q-36 0 -65.5 3t-56.5 10t-53.5 18t-55.5 27l32 87q56 -35 101 -48
t96 -13q83 0 124.5 31t41.5 77q0 52 -27.5 78.5t-92.5 38.5l-102 19q-72 14 -111.5 62.5t-39.5 110.5q0 39 14 71t41.5 55t67.5 36t92 13q64 0 113 -12t99 -45z" />
    <glyph glyph-name="T" unicode="T" horiz-adv-x="544" 
d="M30 650h484v-76h-194v-574h-96v574h-194v76z" />
    <glyph glyph-name="U" unicode="U" horiz-adv-x="680" 
d="M160 650v-379q0 -104 47.5 -156t132.5 -52t132.5 52t47.5 156v379h95v-372q0 -75 -19.5 -129.5t-55 -90.5t-86.5 -53.5t-114 -17.5t-114 17.5t-86.5 53.5t-55 90.5t-19.5 129.5v372h95z" />
    <glyph glyph-name="V" unicode="V" horiz-adv-x="679" 
d="M282 0l-257 650h105l211 -562h4l208 562h101l-256 -650h-116z" />
    <glyph glyph-name="W" unicode="W" horiz-adv-x="1009" 
d="M231 0l-206 650h103l169 -555h4l162 555h85l171 -555h4l165 555h96l-205 -650h-128l-144 483h-4l-145 -483h-127z" />
    <glyph glyph-name="X" unicode="X" horiz-adv-x="682" 
d="M162 650l178 -257l182 257h107l-226 -307l254 -343h-115l-205 289l-204 -289h-108l249 343l-226 307h114z" />
    <glyph glyph-name="Y" unicode="Y" horiz-adv-x="646" 
d="M131 650l192 -313h4l190 313h104l-250 -401v-249h-94v247l-252 403h106z" />
    <glyph glyph-name="Z" unicode="Z" horiz-adv-x="617" 
d="M573 650v-68l-417 -503h425v-79h-544v65l420 508h-393v77h509z" />
    <glyph glyph-name="bracketleft" unicode="[" horiz-adv-x="253" 
d="M144 -18h74v-73h-163v826h163v-72h-74v-681z" />
    <glyph glyph-name="backslash" unicode="\" horiz-adv-x="302" 
d="M302 -11l-77 -25l-241 697l75 25z" />
    <glyph glyph-name="bracketright" unicode="]" horiz-adv-x="253" 
d="M129 663h-74v72h163v-826h-163v73h74v681z" />
    <glyph glyph-name="asciicircum" unicode="^" horiz-adv-x="375" 
d="M200 663l140 -150l-28 -63l-125 119l-125 -118l-27 62l141 150h24z" />
    <glyph glyph-name="underscore" unicode="_" horiz-adv-x="363" 
d="M363 -37v-71h-363v71h363z" />
    <glyph glyph-name="grave" unicode="`" horiz-adv-x="267" 
d="M217 563h-64l-103 136l73 47z" />
    <glyph glyph-name="a" unicode="a" horiz-adv-x="602" 
d="M79 466q56 23 103.5 33.5t109.5 10.5q111 0 163.5 -41t52.5 -133v-209q0 -36 12 -48.5t50 -12.5v-66q-17 -5 -31.5 -7.5t-34.5 -2.5q-31 0 -49 22t-21 60q-69 -82 -206 -82q-88 0 -133.5 41t-45.5 112q0 34 10.5 62t36.5 57q34 10 68.5 18t73.5 13t83 8t97 4v28
q0 52 -28.5 76t-101.5 24q-94 0 -189 -41zM418 238q-87 -2 -146.5 -9.5t-108.5 -20.5q-20 -24 -20 -60q0 -41 25.5 -61.5t72.5 -20.5q50 0 92.5 15t84.5 51v106z" />
    <glyph glyph-name="b" unicode="b" horiz-adv-x="619" 
d="M158 730v-264q38 23 79.5 33.5t92.5 10.5q122 0 185.5 -64t63.5 -191q0 -60 -22.5 -109t-62 -83.5t-93.5 -53.5t-118 -19q-35 0 -64 3t-54.5 9.5t-49.5 16.5t-50 24v687h93zM158 95q17 -8 31.5 -13t28.5 -8t30 -4.5t36 -1.5q92 0 146.5 47.5t54.5 140.5q0 90 -39 134.5
t-124 44.5q-48 0 -88.5 -11t-75.5 -36v-293z" />
    <glyph glyph-name="c" unicode="c" horiz-adv-x="548" 
d="M471 403q-33 17 -66.5 25t-71.5 8q-94 0 -146.5 -48t-52.5 -139q0 -41 14.5 -75t40 -58t58.5 -37t71 -13q93 0 170 42l28 -73q-48 -26 -96 -35.5t-107 -9.5q-63 0 -113.5 19.5t-86 54t-54.5 81.5t-19 102q0 59 22.5 107.5t61.5 83t91 53.5t112 19t102.5 -9t80.5 -29z" />
    <glyph glyph-name="d" unicode="d" horiz-adv-x="619" 
d="M554 730v-712q-30 -8 -57.5 -13.5t-56.5 -8.5t-57 -4.5t-70 -1.5q-70 0 -118.5 16.5t-83 49.5t-53 82t-18.5 114q0 58 19.5 106t54.5 81.5t83.5 52t106.5 18.5q52 0 87.5 -8t69.5 -30v258h93zM461 387q-63 48 -149 48q-38 0 -70.5 -11.5t-56.5 -34t-37.5 -56.5t-13.5 -80
q0 -48 14 -83.5t39.5 -58.5t60 -34.5t75.5 -11.5q42 0 72.5 3.5t65.5 12.5v306z" />
    <glyph glyph-name="e" unicode="e" horiz-adv-x="587" 
d="M136 227q3 -41 19 -71.5t42 -50t59.5 -29t69.5 -9.5q53 0 93.5 8.5t79.5 30.5l27 -76q-25 -12 -47.5 -19.5t-46.5 -12t-51.5 -6.5t-60.5 -2q-68 0 -120 18t-87.5 52t-54 82t-18.5 107q0 58 20.5 106.5t57.5 82.5t86.5 53t108.5 19q60 0 104 -15.5t73 -43t43 -65.5t14 -83
q0 -21 -2 -38.5t-7 -37.5h-402zM457 299q-1 74 -37 105t-117 31q-30 0 -59.5 -8.5t-52.5 -25.5t-38.5 -42.5t-18.5 -59.5h323z" />
    <glyph glyph-name="f" unicode="f" horiz-adv-x="364" 
d="M107 500v33q0 43 13.5 79t39 62.5t61.5 41t81 14.5q50 0 87 -10t74 -33l-39 -70q-26 17 -52 25t-58 8q-63 0 -88.5 -30.5t-25.5 -83.5v-36h153l-4 -77l-149 5v-428h-93v423l-87 12v65h87z" />
    <glyph glyph-name="g" unicode="g" horiz-adv-x="582" 
d="M567 444h-111q29 -23 42 -49t13 -62q0 -38 -15 -70t-43.5 -55.5t-70 -37t-94.5 -13.5q-79 0 -131 26q-15 -6 -24 -22t-9 -29q0 -23 19 -40.5t66 -17.5h128q46 0 85 -4t81 -15q44 -50 44 -117q0 -55 -28 -90.5t-70.5 -56.5t-94 -29t-97.5 -8q-111 0 -169 40.5t-58 117.5
q0 38 15.5 65t51.5 50q-28 14 -42.5 40t-14.5 53q0 31 16 60t46 46q-36 42 -36 107q0 81 60 129t170 48h271v-66zM225 -2q-20 0 -35 1t-29 4q-47 -28 -47 -76q0 -53 40.5 -76.5t112.5 -23.5q25 0 59 4.5t64.5 16.5t51.5 33t21 54q0 14 -4 28t-12 26q-28 6 -51 7.5t-51 1.5
h-120zM151 333q0 -52 35.5 -78.5t101.5 -26.5q60 0 98.5 25.5t38.5 79.5q0 27 -10.5 47.5t-29 34t-43.5 20t-54 6.5q-63 0 -100 -28t-37 -80z" />
    <glyph glyph-name="h" unicode="h" horiz-adv-x="610" 
d="M158 730v-302q35 44 82.5 63t98.5 19q104 0 155.5 -56.5t51.5 -162.5v-291h-93v292q0 66 -25 104t-89 38q-56 0 -100.5 -22t-80.5 -66v-346h-93v730h93z" />
    <glyph glyph-name="i" unicode="i" horiz-adv-x="223" 
d="M158 500v-500h-93v500h93zM112 716q31 0 48 -18.5t17 -44.5q0 -25 -17 -44t-48 -19t-48 19t-17 44q0 26 17 44.5t48 18.5z" />
    <glyph glyph-name="j" unicode="j" horiz-adv-x="233" 
d="M168 500v-529q0 -101 -52 -156.5t-149 -57.5l-7 79q59 4 86.5 32t27.5 86v546h94zM121 716q31 0 48 -18.5t17 -44.5q0 -25 -17 -44t-48 -19t-48 19t-17 44q0 26 17 44.5t48 18.5z" />
    <glyph glyph-name="k" unicode="k" horiz-adv-x="559" 
d="M157 730v-438l80 53l174 155h109l2 -10l-217 -189l227 -293l-3 -8h-105l-190 255l-77 -43v-212h-92v730h92z" />
    <glyph glyph-name="l" unicode="l" horiz-adv-x="240" 
d="M157 730v-582q0 -37 15.5 -52.5t57.5 -15.5v-84q-6 -1 -12 -1.5t-12 -0.5q-40 0 -67 11.5t-43.5 32.5t-23.5 51.5t-7 68.5v572h92z" />
    <glyph glyph-name="m" unicode="m" horiz-adv-x="961" 
d="M146 500l6 -79q36 48 79.5 68.5t97.5 20.5q129 0 175 -90q36 43 84 66.5t106 23.5q104 0 153 -56.5t49 -162.5v-291h-93v292q0 33 -5 59t-17.5 44.5t-33.5 28.5t-53 10q-57 0 -95.5 -21.5t-72.5 -63.5q2 -14 3.5 -28t1.5 -30v-291h-93v292q0 33 -5 59t-17.5 44.5
t-33.5 28.5t-53 10q-59 0 -97.5 -22t-73.5 -67v-345h-93v500h81z" />
    <glyph glyph-name="n" unicode="n" horiz-adv-x="611" 
d="M146 500l6 -79q36 48 84.5 68.5t102.5 20.5q104 0 155.5 -56.5t51.5 -162.5v-291h-93v292q0 66 -25 104t-89 38q-59 0 -102.5 -22t-78.5 -67v-345h-93v500h81z" />
    <glyph glyph-name="o" unicode="o" horiz-adv-x="638" 
d="M598 250q0 -60 -22 -108t-59.5 -82t-88.5 -52t-109 -18t-109 18t-88.5 52t-59.5 82t-22 108t22 108t59.5 82t88.5 52t109 18t109 -18t88.5 -52t59.5 -82t22 -108zM131 250q0 -87 50 -137t138 -50t138 50t50 137t-50 137t-138 50t-138 -50t-50 -137z" />
    <glyph glyph-name="p" unicode="p" horiz-adv-x="609" 
d="M65 481q29 7 55.5 12.5t53.5 9t56 5.5t62 2q135 0 206 -69t71 -192q0 -57 -16 -104.5t-47.5 -82t-80 -53.5t-112.5 -19q-51 0 -86 10.5t-69 36.5v-267h-93v711zM158 123q36 -31 73 -43t82 -12q76 0 119.5 47.5t43.5 133.5q0 94 -48.5 141t-135.5 47q-23 0 -40.5 -1
t-33 -3.5t-30 -6t-30.5 -8.5v-295z" />
    <glyph glyph-name="q" unicode="q" horiz-adv-x="614" 
d="M456 -230v264q-38 -24 -78 -34t-91 -10q-122 0 -184.5 67t-62.5 194q0 60 23 108t62.5 81.5t92.5 51.5t113 18q65 0 115.5 -12.5t102.5 -40.5v-687h-93zM456 407q-16 8 -30 13t-28.5 8t-31 4.5t-36.5 1.5q-92 0 -144.5 -44.5t-52.5 -137.5q0 -88 38.5 -135t123.5 -47
q48 0 87 10.5t74 33.5v293z" />
    <glyph glyph-name="r" unicode="r" horiz-adv-x="491" 
d="M146 500l6 -79q36 48 78 68.5t96 20.5q52 0 87 -15.5t67 -56.5l-63 -57q-21 26 -47 38.5t-54 12.5q-56 0 -91 -22t-67 -67v-343h-93v500h81z" />
    <glyph glyph-name="s" unicode="s" horiz-adv-x="502" 
d="M406 407q-39 18 -74.5 24.5t-76.5 6.5q-66 0 -95.5 -18.5t-29.5 -47.5q0 -37 33.5 -50.5t99.5 -20.5q94 -10 145.5 -45.5t51.5 -112.5q0 -78 -64 -115.5t-174 -37.5q-55 0 -96.5 7.5t-85.5 26.5l23 76q74 -35 155 -35q155 0 155 79q0 19 -7 32t-23 21.5t-42 14t-65 9.5
q-98 10 -146 43t-48 101q0 30 13 56.5t39.5 46t67 31t94.5 11.5q27 0 49.5 -1.5t43.5 -5t42 -9.5t44 -15z" />
    <glyph glyph-name="t" unicode="t" horiz-adv-x="434" 
d="M15 469l68 43l73 113l31 -5v-120h199l-3 -77l-196 9v-263q0 -57 26 -81t67 -24q33 0 59.5 9t54.5 26l30 -67q-31 -22 -67.5 -32t-86.5 -10q-86 0 -131.5 45t-45.5 133v255l-78 11v35z" />
    <glyph glyph-name="u" unicode="u" horiz-adv-x="604" 
d="M158 500v-292q0 -65 23.5 -103.5t87.5 -38.5q59 0 100.5 22t76.5 67v345h93v-500h-81l-6 79q-36 -48 -82.5 -68.5t-100.5 -20.5q-104 0 -154 56.5t-50 162.5v291h93z" />
    <glyph glyph-name="v" unicode="v" horiz-adv-x="605" 
d="M126 500l174 -421h4l180 421h96l-228 -500h-108l-219 500h101z" />
    <glyph glyph-name="w" unicode="w" horiz-adv-x="862" 
d="M25 500h96l134 -413h8l133 413h76l137 -413h8l127 413h93l-168 -500h-121l-112 344h-6l-113 -344h-124z" />
    <glyph glyph-name="x" unicode="x" horiz-adv-x="588" 
d="M155 500l135 -200h4l145 200h103l-176 -238l192 -262h-110l-154 220h-4l-156 -220h-104l193 261l-177 239h109z" />
    <glyph glyph-name="y" unicode="y" horiz-adv-x="599" 
d="M128 500l193 -402h4l149 402h100l-246 -596q-20 -48 -63 -75.5t-94 -27.5q-19 0 -33 3t-33 10l14 72q22 -5 39 -5q35 0 60.5 14.5t42.5 55.5l18 45l-254 504h103z" />
    <glyph glyph-name="z" unicode="z" horiz-adv-x="543" 
d="M495 500v-55l-335 -373h337v-72h-455v56l332 372h-321v72h442z" />
    <glyph glyph-name="braceleft" unicode="{" horiz-adv-x="301" 
d="M271 663h-33q-50 0 -50 -55v-185q0 -33 -13 -61t-38 -38v-4q23 -9 37 -36t14 -59v-189q0 -54 50 -54h33v-73h-42q-59 0 -94.5 33.5t-35.5 96.5v206q0 22 -11 31t-29 9h-29v74h29q18 0 29 9.5t11 30.5v206q0 63 35 96.5t95 33.5h42v-72z" />
    <glyph glyph-name="bar" unicode="|" horiz-adv-x="237" 
d="M162 686v-796h-87v796h87z" />
    <glyph glyph-name="braceright" unicode="}" horiz-adv-x="301" 
d="M30 -16h33q50 0 50 54v185q0 33 13 61t38 38v4q-23 9 -37 36t-14 59v189q0 55 -50 55h-33v72h42q59 0 94.5 -33.5t35.5 -96.5v-206q0 -22 11 -31t29 -9h29v-74h-29q-18 0 -29 -9.5t-11 -30.5v-206q0 -63 -35 -96.5t-95 -33.5h-42v73z" />
    <glyph glyph-name="asciitilde" unicode="~" horiz-adv-x="445" 
d="M30 335q23 25 51.5 37.5t67.5 12.5q26 0 44.5 -6t34.5 -13.5t32.5 -13.5t37.5 -6q23 0 39.5 7t33.5 24l41 -50q-26 -31 -51.5 -44.5t-63.5 -13.5q-22 0 -41.5 6.5t-37.5 15t-36.5 15t-38.5 6.5q-29 0 -49.5 -9.5t-35.5 -29.5z" />
    <glyph glyph-name="exclamdown" unicode="&#xa1;" horiz-adv-x="225" 
d="M65.0098 -28.959l12.999 508.97h68.9961l12.999 -508.97h-94.9941zM113.007 529.008q-31.998 0 -49.4971 18.998q-17.499 18.999 -17.499 46.9971q0 28.999 17.499 45.998t49.4971 16.999t48.9971 -16.999t16.999 -45.998q0 -27.998 -16.999 -46.9971
q-16.999 -18.998 -48.9971 -18.998z" />
    <glyph glyph-name="cent" unicode="&#xa2;" horiz-adv-x="548" 
d="M471 403q-33 17 -66.5 25t-71.5 8q-94 0 -146.5 -48t-52.5 -139q0 -41 14.5 -75t40 -58t58.5 -37t71 -13q93 0 170 42l28 -73q-38 -20 -76 -30t-81 -13v-75h-84v75q-54 6 -97.5 27.5t-74 55t-47 77.5t-16.5 95q0 52 18 96t49.5 77.5t74.5 55.5t93 30v71h84v-68
q47 -2 82.5 -11t68.5 -26z" />
    <glyph glyph-name="currency" unicode="&#xa4;" horiz-adv-x="448" 
d="M137 410q37 22 86 22t86 -22l48 51l56 -54l-50 -47q12 -20 18.5 -39t6.5 -44q0 -24 -6.5 -43t-18.5 -39l49 -47l-55 -55l-47 52q-37 -23 -87 -23q-49 0 -87 22l-47 -52l-54 56l49 46q-12 20 -18.5 39t-6.5 44t6.5 44.5t18.5 39.5l-49 48l55 53zM311 277q0 38 -26.5 61.5
t-61.5 23.5q-17 0 -33 -6t-28 -17.5t-19 -27t-7 -34.5t7.5 -35t19.5 -27t27.5 -17.5t32.5 -6.5t33 6.5t28 17.5t19.5 27t7.5 35z" />
    <glyph glyph-name="yen" unicode="&#xa5;" horiz-adv-x="630" 
d="M130 595l183 -291h7l182 291h103l-193 -287h71v-65h-332v65h69l-195 287h105zM483 206v-65h-120v-141h-94v141h-118v65h332z" />
    <glyph glyph-name="brokenbar" unicode="&#xa6;" horiz-adv-x="237" 
d="M162 686v-363h-87v363h87zM162 263v-373h-87v373h87z" />
    <glyph glyph-name="section" unicode="&#xa7;" horiz-adv-x="516" 
d="M388 579q-30 20 -59.5 28t-64.5 8q-46 0 -71.5 -14t-25.5 -50q0 -17 7.5 -27.5t20 -17.5t28 -11t31.5 -8l63 -15q67 -16 110.5 -51t43.5 -97q0 -40 -20 -74.5t-57 -54.5q23 -19 34 -45.5t11 -56.5q0 -38 -18 -63.5t-46.5 -42t-64 -23.5t-69.5 -7q-51 0 -97 9.5t-85 29.5
l25 78q42 -25 79 -32.5t77 -7.5q22 0 42 2.5t35.5 9.5t24.5 20t9 33q0 32 -23 46t-61 23l-81 20q-74 18 -107.5 56t-33.5 90q0 82 80 127q-23 17 -34.5 37.5t-11.5 51.5q0 35 16 61.5t42 44t58.5 26t66.5 8.5q49 0 88.5 -10t79.5 -33zM184 419q-28 -15 -40.5 -31.5
t-12.5 -43.5q0 -36 23.5 -52t71.5 -28l109 -27q24 11 37 32t13 45q0 19 -6.5 32t-18.5 22t-29.5 15.5t-40.5 11.5z" />
    <glyph glyph-name="dieresis" unicode="&#xa8;" horiz-adv-x="406" 
d="M91 681q29 0 45.5 -17t16.5 -43q0 -25 -16.5 -41.5t-45.5 -16.5q-28 0 -44.5 16.5t-16.5 41.5q0 26 16.5 43t44.5 17zM314 681q29 0 45.5 -17t16.5 -43q0 -25 -16.5 -41.5t-45.5 -16.5q-28 0 -44.5 16.5t-16.5 41.5q0 26 16.5 43t44.5 17z" />
    <glyph glyph-name="copyright" unicode="&#xa9;" horiz-adv-x="761" 
d="M477 393q-18 13 -39.5 18.5t-45.5 5.5q-53 0 -81.5 -27.5t-28.5 -77.5q0 -25 8.5 -44.5t23.5 -33t34.5 -20.5t40.5 -7q30 0 53.5 6.5t49.5 23.5l23 -62q-60 -36 -126 -36q-42 0 -76.5 12.5t-59.5 35t-38.5 54.5t-13.5 71q0 41 15.5 73t42 54t61.5 33.5t75 11.5
q65 0 118 -34zM721 313q0 -73 -26 -133t-71.5 -103t-107.5 -66.5t-134 -23.5t-134 23t-108.5 65.5t-73 102.5t-26.5 135t26.5 135t73 102.5t108.5 65.5t134 23t134 -23.5t107.5 -66.5t71.5 -103t26 -133zM125 313q0 -64 20.5 -112t56 -79.5t82 -47.5t98.5 -16t98.5 16
t82 47.5t56.5 79.5t21 112t-21 112t-56.5 79.5t-82 47.5t-98.5 16t-98.5 -16t-82 -47.5t-56 -79.5t-20.5 -112z" />
    <glyph glyph-name="ordfeminine" unicode="&#xaa;" horiz-adv-x="395" 
d="M49 634q64 29 136 29q70 0 108 -26t38 -85v-128q0 -23 7.5 -31t31.5 -8v-47q-20 -7 -47 -7q-20 0 -32.5 13.5t-12.5 39.5q-27 -26 -60 -39.5t-76 -13.5q-57 0 -84.5 26.5t-27.5 71.5q0 44 35 79q22 7 43 12t44 8t50.5 4.5t61.5 1.5v16q0 33 -17 43.5t-64 10.5
q-30 0 -57.5 -6t-57.5 -20zM264 483q-28 0 -49 -1t-38.5 -3t-33 -5t-30.5 -8q-12 -13 -12 -34q0 -22 14 -31.5t38 -9.5q35 0 61 10t50 31v51z" />
    <glyph glyph-name="guillemotleft" unicode="&#xab;" horiz-adv-x="459" 
d="M252 358l-112 -99l112 -105l-38 -58l-174 141v38l174 141zM424 368l-112 -109l112 -115l-38 -58l-174 154v38l174 148z" />
    <glyph glyph-name="logicalnot" unicode="&#xac;" horiz-adv-x="390" 
d="M350 372l-7 -180h-68l-8 104h-227v76h310z" />
    <glyph glyph-name="uni00AD" unicode="&#xad;" horiz-adv-x="381" 
d="M341 303v-76h-301v76h301z" />
    <glyph glyph-name="registered" unicode="&#xae;" horiz-adv-x="437" 
d="M218 291q-39 0 -72 13.5t-58 37t-39 56.5t-14 72q0 38 14 71t38.5 57t58 38t72.5 14q38 0 71.5 -13.5t58 -37.5t39 -57t14.5 -72t-14.5 -71.5t-39 -56.5t-58 -37.5t-71.5 -13.5zM350 470q0 63 -36 98.5t-96 35.5q-63 0 -97.5 -35.5t-34.5 -98.5q0 -61 34.5 -97.5
t97.5 -36.5q60 0 96 36.5t36 97.5zM297 376h-45l-33 72h-28v-72h-42v192h70q29 0 51.5 -13.5t22.5 -46.5q0 -20 -8.5 -31.5t-25.5 -18.5zM191 485h28q31 0 31 23q0 10 -6.5 16.5t-18.5 6.5h-34v-46z" />
    <glyph glyph-name="macron" unicode="&#xaf;" horiz-adv-x="392" 
d="M358 642v-70h-314v70h314z" />
    <glyph glyph-name="degree" unicode="&#xb0;" horiz-adv-x="369" 
d="M334 521q0 -31 -11.5 -57t-31.5 -45t-47.5 -29.5t-59.5 -10.5t-59 10.5t-47 29.5t-31.5 45t-11.5 57t11.5 57t31.5 45t47 29.5t59 10.5t59.5 -10.5t47.5 -29.5t31.5 -45t11.5 -57zM110 521q0 -38 20.5 -56.5t53.5 -18.5q34 0 54.5 18.5t20.5 56.5t-20.5 56.5t-54.5 18.5
q-33 0 -53.5 -18.5t-20.5 -56.5z" />
    <glyph glyph-name="plusminus" unicode="&#xb1;" horiz-adv-x="422" 
d="M252 572v-130h130v-76h-130v-130h-82v130h-130v76h130v130h82zM362 187v-76h-301v76h301z" />
    <glyph glyph-name="twosuperior" unicode="&#xb2;" horiz-adv-x="332" 
d="M296 375h-271v61l157 119q26 19 37.5 37t11.5 41q0 26 -17.5 41.5t-54.5 15.5q-30 0 -54 -10.5t-48 -33.5l-34 51q29 29 62.5 43t78.5 14q63 0 100.5 -32.5t37.5 -87.5q0 -33 -14 -62t-42 -49l-117 -86h167v-62z" />
    <glyph glyph-name="threesuperior" unicode="&#xb3;" horiz-adv-x="357" 
d="M262 582q60 -27 60 -90q0 -33 -13 -56.5t-35 -39t-50.5 -23t-59.5 -7.5q-25 0 -44 2t-35 7t-30.5 13t-29.5 20l24 55q29 -22 54 -30.5t57 -8.5q39 0 66 17t27 51q0 29 -16.5 40.5t-54.5 11.5h-83v58h74q29 0 44.5 9.5t15.5 35.5q0 47 -67 47q-54 0 -95 -31l-33 47
q30 25 61 34.5t73 9.5q22 0 44.5 -6t41 -18t30.5 -30.5t12 -43.5q0 -27 -9 -44.5t-29 -29.5z" />
    <glyph glyph-name="acute" unicode="&#xb4;" horiz-adv-x="264" 
d="M148 746l73 -47l-103 -136h-64z" />
    <glyph glyph-name="mu" unicode="&#xb5;" horiz-adv-x="604" 
d="M65 -229v729h92v-302q0 -66 24 -99t88 -33q59 0 100.5 22t76.5 67v345h93v-500h-71l-16 79q-36 -48 -82.5 -68.5t-100.5 -20.5q-39 0 -67 9t-51 31l7 -129v-131z" />
    <glyph glyph-name="paragraph" unicode="&#xb6;" horiz-adv-x="384" 
d="M337 566l-74 8h-25q-121 0 -121 -74q0 -38 17 -56.5t56 -18.5q54 0 75 52l52 -4v-440q0 -98 -29.5 -161t-94.5 -106l-57 53q27 22 44.5 44t28 45.5t15 49t4.5 55.5v342q-21 -8 -50 -8q-69 0 -108.5 40.5t-39.5 106.5q0 36 16 65t42 49.5t60.5 31t72.5 10.5h128z" />
    <glyph glyph-name="periodcentered" unicode="&#xb7;" horiz-adv-x="233" 
d="M116 310q32 0 49.5 -19t17.5 -47q0 -29 -17.5 -46t-49.5 -17t-49 17t-17 46q0 28 17 47t49 19z" />
    <glyph glyph-name="cedilla" unicode="&#xb8;" horiz-adv-x="236" 
d="M133 10l-5 -54q32 0 50.5 -15.5t18.5 -44.5q0 -16 -6.5 -34.5t-23 -36t-44 -33t-69.5 -24.5l-12 64q38 3 62.5 16t24.5 39q0 25 -30 25h-36v94z" />
    <glyph glyph-name="onesuperior" unicode="&#xb9;" horiz-adv-x="226" 
d="M137 748l39 -5v-368h-71v284l-71 -19l-17 43z" />
    <glyph glyph-name="ordmasculine" unicode="&#xba;" horiz-adv-x="408" 
d="M378 497q0 -36 -13.5 -66.5t-36.5 -52.5t-55 -34.5t-69 -12.5t-69 12.5t-55 34.5t-36.5 52.5t-13.5 66.5t13.5 66.5t36.5 52.5t55 34.5t69 12.5t69 -12.5t55 -34.5t36.5 -52.5t13.5 -66.5zM105 497q0 -26 8.5 -44.5t22 -31.5t31.5 -19t37 -6t37 6t31.5 19t22 31.5
t8.5 44.5q0 25 -8.5 44t-22 32t-31.5 19t-37 6t-37 -6t-31.5 -19t-22 -32t-8.5 -44z" />
    <glyph glyph-name="guillemotright" unicode="&#xbb;" horiz-adv-x="459" 
d="M424 275v-38l-174 -141l-38 58l112 99l-112 105l38 58zM252 272v-38l-174 -148l-38 58l112 109l-112 115l38 58z" />
    <glyph glyph-name="questiondown" unicode="&#xbf;" horiz-adv-x="468" 
d="M265.013 480.011q13.999 -27.999 13.999 -66.9961q0 -28.998 -11 -50.9971q-10.999 -21.999 -28.498 -37.498t-38.9971 -26.498q-21.499 -10.999 -41.498 -18.999q-46.9971 -17.999 -72.9951 -44.4971t-25.998 -75.4951q0 -50.9971 38.9971 -82.4951
q38.998 -31.498 111.993 -31.498q50.9971 0 99.9941 19.999q48.9971 19.998 83.9951 55.9961l47.9971 -62.9961q-44.998 -43.9971 -105.494 -66.9961q-60.4961 -22.998 -133.492 -22.998q-50.9961 0 -93.4941 12.499q-42.4971 12.499 -72.9951 37.498
q-30.498 24.998 -47.9971 62.9961q-17.499 37.9971 -17.499 87.9941q0 45.9971 25.498 87.4951q25.499 41.4971 76.4961 67.4951q22.998 12 45.4971 20.999q22.498 8.99902 39.9971 20.499q17.499 11.499 28.499 28.498q10.999 16.999 10.999 44.9971v40.998h65.9961z
M232.015 529.008q-31.998 0 -49.4971 18.998q-17.499 18.999 -17.499 46.9971q0 28.999 17.499 45.998t49.4971 16.999t48.9971 -16.999t16.999 -45.998q0 -27.998 -16.999 -46.9971q-16.999 -18.998 -48.9971 -18.998z" />
    <glyph glyph-name="Agrave" unicode="&#xc0;" horiz-adv-x="707" 
d="M406 650l278 -650h-99l-85 197h-299l-81 -197h-98l279 650h105zM232 275h238l-114 283h-9zM379 698h-69l-98 136l78 47z" />
    <glyph glyph-name="Aacute" unicode="&#xc1;" horiz-adv-x="707" 
d="M406 650l278 -650h-99l-85 197h-299l-81 -197h-98l279 650h105zM232 275h238l-114 283h-9zM416 881l78 -47l-98 -136h-69z" />
    <glyph glyph-name="Acircumflex" unicode="&#xc2;" horiz-adv-x="707" 
d="M406 650l278 -650h-99l-85 197h-299l-81 -197h-98l279 650h105zM232 275h238l-114 283h-9zM353 768l-132 -86l-21 54l141 119h23l142 -119l-21 -54z" />
    <glyph glyph-name="Atilde" unicode="&#xc3;" horiz-adv-x="707" 
d="M406 650l278 -650h-99l-85 197h-299l-81 -197h-98l279 650h105zM232 275h238l-114 283h-9zM172 765q22 22 52.5 33.5t64.5 11.5q24 0 41 -6t32 -12.5t29.5 -12.5t34.5 -6q21 0 36 6t32 23l41 -48q-43 -55 -108 -55q-23 0 -41 6t-35 13.5t-33.5 13.5t-34.5 6
q-49 0 -83 -39z" />
    <glyph glyph-name="Adieresis" unicode="&#xc4;" horiz-adv-x="707" 
d="M406 650l278 -650h-99l-85 197h-299l-81 -197h-98l279 650h105zM232 275h238l-114 283h-9zM243 828q31 0 47.5 -17t16.5 -44q0 -26 -16.5 -43t-47.5 -17q-29 0 -45.5 17t-16.5 43q0 27 16.5 44t45.5 17zM462 828q29 0 46 -17t17 -44q0 -26 -17 -43t-46 -17t-46 17t-17 43
q0 27 17 44t46 17z" />
    <glyph glyph-name="Aring" unicode="&#xc5;" horiz-adv-x="707" 
d="M406 650l278 -650h-99l-85 197h-299l-81 -197h-98l279 650h105zM232 275h238l-114 283h-9zM353 674q-52 0 -84.5 31.5t-32.5 80.5q0 23 9 43.5t24.5 35.5t37 23.5t46.5 8.5t46.5 -8.5t37 -23.5t24.5 -35.5t9 -43.5q0 -50 -33 -81t-84 -31zM409 786q0 24 -16 39.5
t-40 15.5t-40.5 -15.5t-16.5 -39.5t16.5 -40t40.5 -16t40 16t16 40z" />
    <glyph glyph-name="AE" unicode="&#xc6;" horiz-adv-x="951" 
d="M894 650v-79h-323v-194h290v-78h-290v-220h337v-79h-433v140h-272l-86 -140h-102l390 650h489zM245 219h230v345h-27z" />
    <glyph glyph-name="Ccedilla" unicode="&#xc7;" horiz-adv-x="660" 
d="M584 518q-48 35 -93.5 51t-99.5 16q-58 0 -105.5 -19.5t-81 -54t-51.5 -82t-18 -103.5q0 -63 20 -110.5t54.5 -80t81 -48.5t99.5 -16q63 0 115 17.5t105 57.5l12 -94q-25 -17 -50 -29t-52 -19.5t-56 -11.5t-62 -5l-4 -35q35 0 54 -18.5t19 -51.5q0 -28 -14.5 -49.5
t-37 -37t-50 -25.5t-52.5 -14l-13 61q41 7 68 21.5t27 41.5t-36 27h-33l3 83q-59 6 -112 29.5t-93 65t-64 101.5t-24 140q0 75 28 137.5t76 106.5t112 68.5t135 24.5q73 0 126.5 -17t104.5 -55z" />
    <glyph glyph-name="Egrave" unicode="&#xc8;" horiz-adv-x="541" 
d="M65 650h419v-79h-323v-194h290v-78h-290v-220h337v-79h-433v650zM324 698h-69l-98 136l78 47z" />
    <glyph glyph-name="Eacute" unicode="&#xc9;" horiz-adv-x="541" 
d="M65 650h419v-79h-323v-194h290v-78h-290v-220h337v-79h-433v650zM329 881l78 -47l-98 -136h-69z" />
    <glyph glyph-name="Ecircumflex" unicode="&#xca;" horiz-adv-x="541" 
d="M65 650h419v-79h-323v-194h290v-78h-290v-220h337v-79h-433v650zM285 777l-132 -86l-21 54l141 119h23l142 -119l-21 -54z" />
    <glyph glyph-name="Edieresis" unicode="&#xcb;" horiz-adv-x="541" 
d="M65 650h419v-79h-323v-194h290v-78h-290v-220h337v-79h-433v650zM171 828q31 0 47.5 -17t16.5 -44q0 -26 -16.5 -43t-47.5 -17q-29 0 -45.5 17t-16.5 43q0 27 16.5 44t45.5 17zM390 828q29 0 46 -17t17 -44q0 -26 -17 -43t-46 -17t-46 17t-17 43q0 27 17 44t46 17z" />
    <glyph glyph-name="Igrave" unicode="&#xcc;" horiz-adv-x="225" 
d="M160 650v-650h-95v650h95zM149 698h-69l-98 136l78 47z" />
    <glyph glyph-name="Iacute" unicode="&#xcd;" horiz-adv-x="225" 
d="M160 650v-650h-95v650h95zM169 881l78 -47l-98 -136h-69z" />
    <glyph glyph-name="Icircumflex" unicode="&#xce;" horiz-adv-x="225" 
d="M160 650v-650h-95v650h95zM113 768l-132 -86l-21 54l141 119h23l142 -119l-21 -54z" />
    <glyph glyph-name="Idieresis" unicode="&#xcf;" horiz-adv-x="225" 
d="M160 650v-650h-95v650h95zM3 828q31 0 47.5 -17t16.5 -44q0 -26 -16.5 -43t-47.5 -17q-29 0 -45.5 17t-16.5 43q0 27 16.5 44t45.5 17zM222 828q29 0 46 -17t17 -44q0 -26 -17 -43t-46 -17t-46 17t-17 43q0 27 17 44t46 17z" />
    <glyph glyph-name="Eth" unicode="&#xd0;" horiz-adv-x="706" 
d="M312 650q82 0 147.5 -22.5t111.5 -64.5t70.5 -103t24.5 -139q0 -80 -28 -140t-77.5 -100t-118.5 -60.5t-150 -20.5h-221v294h-66v75h66v281h241zM166 369h163v-75h-163v-215h134q58 0 108 13t86 42t56.5 75t20.5 112q0 67 -18.5 114.5t-52.5 78t-82 44.5t-106 14h-146
v-203z" />
    <glyph glyph-name="Ntilde" unicode="&#xd1;" horiz-adv-x="734" 
d="M164 650l417 -531l-3 170v361h91v-650h-102l-418 533l6 -198v-335h-90v650h99zM186 765q22 22 52.5 33.5t64.5 11.5q24 0 41 -6t32 -12.5t29.5 -12.5t34.5 -6q21 0 36 6t32 23l41 -48q-43 -55 -108 -55q-23 0 -41 6t-35 13.5t-33.5 13.5t-34.5 6q-49 0 -83 -39z" />
    <glyph glyph-name="Ograve" unicode="&#xd2;" horiz-adv-x="780" 
d="M740 325q0 -75 -27 -137t-74.5 -107t-111.5 -69.5t-137 -24.5q-74 0 -137.5 24.5t-111 69.5t-74.5 107t-27 137t27 137t74.5 107t111 69.5t137.5 24.5q73 0 137 -24.5t111.5 -69.5t74.5 -107t27 -137zM136 325q0 -62 20.5 -110t55 -81t80.5 -50.5t98 -17.5t98 17.5
t80.5 50.5t55 81t20.5 110t-20.5 110t-55 81t-80.5 50.5t-98 17.5t-98 -17.5t-80.5 -50.5t-55 -81t-20.5 -110zM420 703h-69l-98 136l78 47z" />
    <glyph glyph-name="Oacute" unicode="&#xd3;" horiz-adv-x="780" 
d="M740 325q0 -75 -27 -137t-74.5 -107t-111.5 -69.5t-137 -24.5q-74 0 -137.5 24.5t-111 69.5t-74.5 107t-27 137t27 137t74.5 107t111 69.5t137.5 24.5q73 0 137 -24.5t111.5 -69.5t74.5 -107t27 -137zM136 325q0 -62 20.5 -110t55 -81t80.5 -50.5t98 -17.5t98 17.5
t80.5 50.5t55 81t20.5 110t-20.5 110t-55 81t-80.5 50.5t-98 17.5t-98 -17.5t-80.5 -50.5t-55 -81t-20.5 -110zM441 886l78 -47l-98 -136h-69z" />
    <glyph glyph-name="Ocircumflex" unicode="&#xd4;" horiz-adv-x="780" 
d="M740 325q0 -75 -27 -137t-74.5 -107t-111.5 -69.5t-137 -24.5q-74 0 -137.5 24.5t-111 69.5t-74.5 107t-27 137t27 137t74.5 107t111 69.5t137.5 24.5q73 0 137 -24.5t111.5 -69.5t74.5 -107t27 -137zM136 325q0 -62 20.5 -110t55 -81t80.5 -50.5t98 -17.5t98 17.5
t80.5 50.5t55 81t20.5 110t-20.5 110t-55 81t-80.5 50.5t-98 17.5t-98 -17.5t-80.5 -50.5t-55 -81t-20.5 -110zM390 777l-132 -86l-21 54l141 119h23l142 -119l-21 -54z" />
    <glyph glyph-name="Otilde" unicode="&#xd5;" horiz-adv-x="780" 
d="M740 325q0 -75 -27 -137t-74.5 -107t-111.5 -69.5t-137 -24.5q-74 0 -137.5 24.5t-111 69.5t-74.5 107t-27 137t27 137t74.5 107t111 69.5t137.5 24.5q73 0 137 -24.5t111.5 -69.5t74.5 -107t27 -137zM136 325q0 -62 20.5 -110t55 -81t80.5 -50.5t98 -17.5t98 17.5
t80.5 50.5t55 81t20.5 110t-20.5 110t-55 81t-80.5 50.5t-98 17.5t-98 -17.5t-80.5 -50.5t-55 -81t-20.5 -110zM209 765q22 22 52.5 33.5t64.5 11.5q24 0 41 -6t32 -12.5t29.5 -12.5t34.5 -6q21 0 36 6t32 23l41 -48q-43 -55 -108 -55q-23 0 -41 6t-35 13.5t-33.5 13.5
t-34.5 6q-49 0 -83 -39z" />
    <glyph glyph-name="Odieresis" unicode="&#xd6;" horiz-adv-x="780" 
d="M740 325q0 -75 -27 -137t-74.5 -107t-111.5 -69.5t-137 -24.5q-74 0 -137.5 24.5t-111 69.5t-74.5 107t-27 137t27 137t74.5 107t111 69.5t137.5 24.5q73 0 137 -24.5t111.5 -69.5t74.5 -107t27 -137zM136 325q0 -62 20.5 -110t55 -81t80.5 -50.5t98 -17.5t98 17.5
t80.5 50.5t55 81t20.5 110t-20.5 110t-55 81t-80.5 50.5t-98 17.5t-98 -17.5t-80.5 -50.5t-55 -81t-20.5 -110zM280 828q31 0 47.5 -17t16.5 -44q0 -26 -16.5 -43t-47.5 -17q-29 0 -45.5 17t-16.5 43q0 27 16.5 44t45.5 17zM499 828q29 0 46 -17t17 -44q0 -26 -17 -43
t-46 -17t-46 17t-17 43q0 27 17 44t46 17z" />
    <glyph glyph-name="multiply" unicode="&#xd7;" horiz-adv-x="382" 
d="M191 373l103 102l53 -53l-102 -103l102 -103l-53 -53l-103 102l-103 -102l-53 53l102 103l-102 103l53 53z" />
    <glyph glyph-name="Oslash" unicode="&#xd8;" horiz-adv-x="780" 
d="M683 627l-46 -57q48 -45 75.5 -107.5t27.5 -137.5t-27 -137t-74.5 -107t-111.5 -69.5t-137 -24.5q-103 0 -184 46l-46 -57l-70 44l50 62q-47 45 -73.5 106.5t-26.5 136.5t27 137t74.5 107t111 69.5t137.5 24.5q50 0 95 -11.5t84 -32.5l42 52zM258 98q59 -32 132 -32
q52 0 98 17.5t80.5 50.5t55 81t20.5 110q0 56 -16.5 100t-45.5 77zM517 553q-59 31 -127 31q-52 0 -98 -17.5t-80.5 -50.5t-55 -81t-20.5 -110q0 -55 15.5 -98.5t43.5 -75.5z" />
    <glyph glyph-name="Ugrave" unicode="&#xd9;" horiz-adv-x="680" 
d="M160 650v-379q0 -104 47.5 -156t132.5 -52t132.5 52t47.5 156v379h95v-372q0 -75 -19.5 -129.5t-55 -90.5t-86.5 -53.5t-114 -17.5t-114 17.5t-86.5 53.5t-55 90.5t-19.5 129.5v372h95zM382 698h-69l-98 136l78 47z" />
    <glyph glyph-name="Uacute" unicode="&#xda;" horiz-adv-x="680" 
d="M160 650v-379q0 -104 47.5 -156t132.5 -52t132.5 52t47.5 156v379h95v-372q0 -75 -19.5 -129.5t-55 -90.5t-86.5 -53.5t-114 -17.5t-114 17.5t-86.5 53.5t-55 90.5t-19.5 129.5v372h95zM380 881l78 -47l-98 -136h-69z" />
    <glyph glyph-name="Ucircumflex" unicode="&#xdb;" horiz-adv-x="680" 
d="M160 650v-379q0 -104 47.5 -156t132.5 -52t132.5 52t47.5 156v379h95v-372q0 -75 -19.5 -129.5t-55 -90.5t-86.5 -53.5t-114 -17.5t-114 17.5t-86.5 53.5t-55 90.5t-19.5 129.5v372h95zM340 777l-132 -86l-21 54l141 119h23l142 -119l-21 -54z" />
    <glyph glyph-name="Udieresis" unicode="&#xdc;" horiz-adv-x="680" 
d="M160 650v-379q0 -104 47.5 -156t132.5 -52t132.5 52t47.5 156v379h95v-372q0 -75 -19.5 -129.5t-55 -90.5t-86.5 -53.5t-114 -17.5t-114 17.5t-86.5 53.5t-55 90.5t-19.5 129.5v372h95zM230 828q31 0 47.5 -17t16.5 -44q0 -26 -16.5 -43t-47.5 -17q-29 0 -45.5 17
t-16.5 43q0 27 16.5 44t45.5 17zM449 828q29 0 46 -17t17 -44q0 -26 -17 -43t-46 -17t-46 17t-17 43q0 27 17 44t46 17z" />
    <glyph glyph-name="Yacute" unicode="&#xdd;" horiz-adv-x="646" 
d="M131 650l192 -313h4l190 313h104l-250 -401v-249h-94v247l-252 403h106zM376 881l78 -47l-98 -136h-69z" />
    <glyph glyph-name="Thorn" unicode="&#xde;" 
d="M160 663v-112h128q55 0 101.5 -14t80 -40t52 -64t18.5 -87q0 -50 -18.5 -88t-51.5 -64t-79.5 -39.5t-102.5 -13.5h-128v-141h-95v663h95zM160 218h115q85 0 127.5 29t42.5 99q0 128 -170 128h-115v-256z" />
    <glyph glyph-name="agrave" unicode="&#xe0;" horiz-adv-x="602" 
d="M79 466q56 23 103.5 33.5t109.5 10.5q111 0 163.5 -41t52.5 -133v-209q0 -36 12 -48.5t50 -12.5v-66q-17 -5 -31.5 -7.5t-34.5 -2.5q-31 0 -49 22t-21 60q-69 -82 -206 -82q-88 0 -133.5 41t-45.5 112q0 34 10.5 62t36.5 57q34 10 68.5 18t73.5 13t83 8t97 4v28
q0 52 -28.5 76t-101.5 24q-94 0 -189 -41zM418 238q-87 -2 -146.5 -9.5t-108.5 -20.5q-20 -24 -20 -60q0 -41 25.5 -61.5t72.5 -20.5q50 0 92.5 15t84.5 51v106zM331 563h-64l-103 136l73 47z" />
    <glyph glyph-name="aacute" unicode="&#xe1;" horiz-adv-x="602" 
d="M79 466q56 23 103.5 33.5t109.5 10.5q111 0 163.5 -41t52.5 -133v-209q0 -36 12 -48.5t50 -12.5v-66q-17 -5 -31.5 -7.5t-34.5 -2.5q-31 0 -49 22t-21 60q-69 -82 -206 -82q-88 0 -133.5 41t-45.5 112q0 34 10.5 62t36.5 57q34 10 68.5 18t73.5 13t83 8t97 4v28
q0 52 -28.5 76t-101.5 24q-94 0 -189 -41zM418 238q-87 -2 -146.5 -9.5t-108.5 -20.5q-20 -24 -20 -60q0 -41 25.5 -61.5t72.5 -20.5q50 0 92.5 15t84.5 51v106zM352 746l73 -47l-103 -136h-64z" />
    <glyph glyph-name="acircumflex" unicode="&#xe2;" horiz-adv-x="602" 
d="M79 466q56 23 103.5 33.5t109.5 10.5q111 0 163.5 -41t52.5 -133v-209q0 -36 12 -48.5t50 -12.5v-66q-17 -5 -31.5 -7.5t-34.5 -2.5q-31 0 -49 22t-21 60q-69 -82 -206 -82q-88 0 -133.5 41t-45.5 112q0 34 10.5 62t36.5 57q34 10 68.5 18t73.5 13t83 8t97 4v28
q0 52 -28.5 76t-101.5 24q-94 0 -189 -41zM418 238q-87 -2 -146.5 -9.5t-108.5 -20.5q-20 -24 -20 -60q0 -41 25.5 -61.5t72.5 -20.5q50 0 92.5 15t84.5 51v106zM287 622l-112 -77l-23 48l123 125h23l124 -125l-23 -48z" />
    <glyph glyph-name="atilde" unicode="&#xe3;" horiz-adv-x="602" 
d="M79 466q56 23 103.5 33.5t109.5 10.5q111 0 163.5 -41t52.5 -133v-209q0 -36 12 -48.5t50 -12.5v-66q-17 -5 -31.5 -7.5t-34.5 -2.5q-31 0 -49 22t-21 60q-69 -82 -206 -82q-88 0 -133.5 41t-45.5 112q0 34 10.5 62t36.5 57q34 10 68.5 18t73.5 13t83 8t97 4v28
q0 52 -28.5 76t-101.5 24q-94 0 -189 -41zM418 238q-87 -2 -146.5 -9.5t-108.5 -20.5q-20 -24 -20 -60q0 -41 25.5 -61.5t72.5 -20.5q50 0 92.5 15t84.5 51v106zM112 625q43 48 114 48q25 0 41.5 -6t30.5 -13.5t28 -13.5t34 -6q21 0 36 7t32 24l41 -46q-23 -29 -48.5 -42.5
t-59.5 -13.5q-23 0 -40.5 6.5t-34 14t-32.5 14t-34 6.5q-26 0 -45 -9.5t-35 -29.5z" />
    <glyph glyph-name="adieresis" unicode="&#xe4;" horiz-adv-x="602" 
d="M79 466q56 23 103.5 33.5t109.5 10.5q111 0 163.5 -41t52.5 -133v-209q0 -36 12 -48.5t50 -12.5v-66q-17 -5 -31.5 -7.5t-34.5 -2.5q-31 0 -49 22t-21 60q-69 -82 -206 -82q-88 0 -133.5 41t-45.5 112q0 34 10.5 62t36.5 57q34 10 68.5 18t73.5 13t83 8t97 4v28
q0 52 -28.5 76t-101.5 24q-94 0 -189 -41zM418 238q-87 -2 -146.5 -9.5t-108.5 -20.5q-20 -24 -20 -60q0 -41 25.5 -61.5t72.5 -20.5q50 0 92.5 15t84.5 51v106zM184 681q29 0 45.5 -17t16.5 -43q0 -25 -16.5 -41.5t-45.5 -16.5q-28 0 -44.5 16.5t-16.5 41.5q0 26 16.5 43
t44.5 17zM407 681q29 0 45.5 -17t16.5 -43q0 -25 -16.5 -41.5t-45.5 -16.5q-28 0 -44.5 16.5t-16.5 41.5q0 26 16.5 43t44.5 17z" />
    <glyph glyph-name="aring" unicode="&#xe5;" horiz-adv-x="602" 
d="M79 466q56 23 103.5 33.5t109.5 10.5q111 0 163.5 -41t52.5 -133v-209q0 -36 12 -48.5t50 -12.5v-66q-17 -5 -31.5 -7.5t-34.5 -2.5q-31 0 -49 22t-21 60q-69 -82 -206 -82q-88 0 -133.5 41t-45.5 112q0 34 10.5 62t36.5 57q34 10 68.5 18t73.5 13t83 8t97 4v28
q0 52 -28.5 76t-101.5 24q-94 0 -189 -41zM418 238q-87 -2 -146.5 -9.5t-108.5 -20.5q-20 -24 -20 -60q0 -41 25.5 -61.5t72.5 -20.5q50 0 92.5 15t84.5 51v106zM294 549q-21 0 -40.5 6.5t-35 19.5t-24.5 32t-9 45q0 23 8.5 42t23.5 32.5t35 21t42 7.5q20 0 39.5 -7t35 -20
t25 -32t9.5 -44q0 -26 -9 -45.5t-24 -32t-35 -19t-41 -6.5zM294 603q22 0 37 13t15 36q0 21 -14.5 34.5t-37.5 13.5q-21 0 -36.5 -13.5t-15.5 -34.5t14.5 -35t37.5 -14z" />
    <glyph glyph-name="ae" unicode="&#xe6;" horiz-adv-x="945" 
d="M79 466q51 23 101 33.5t112 10.5q78 0 124 -19t66 -63q36 39 82 60.5t109 21.5q60 0 104 -15.5t73 -43t43 -65.5t14 -83q0 -21 -2 -38.5t-7 -37.5h-393q3 -40 18 -70t39 -49.5t56 -29.5t68 -10q28 0 50 1.5t42 5.5t39.5 11.5t42.5 19.5l28 -77q-24 -12 -47 -19.5t-48 -12
t-52.5 -6t-60.5 -1.5q-75 0 -125 22t-85 64q-54 -49 -115.5 -67.5t-130.5 -18.5q-88 0 -131.5 41t-43.5 112q0 34 10.5 61.5t36.5 56.5q68 23 147.5 33t173.5 10v29q0 52 -28 76t-101 24q-95 0 -189 -41zM417 238q-81 0 -142.5 -8t-110.5 -22q-11 -12 -15.5 -27t-4.5 -33
q0 -80 97 -80q50 0 92 12.5t84 44.5v113zM818 299q-2 72 -39 104t-116 32q-30 0 -58 -8.5t-49.5 -25.5t-35.5 -42.5t-17 -59.5h315z" />
    <glyph glyph-name="ccedilla" unicode="&#xe7;" horiz-adv-x="548" 
d="M471 403q-33 17 -66.5 25t-71.5 8q-94 0 -146.5 -48t-52.5 -139q0 -41 14.5 -75t40 -58t58.5 -37t71 -13q93 0 170 42l28 -73q-43 -23 -86.5 -33t-94.5 -12l-3 -34q32 0 50.5 -15.5t18.5 -44.5q0 -16 -6.5 -34.5t-23 -36t-44 -33t-69.5 -24.5l-12 64q38 3 62.5 16
t24.5 39q0 25 -30 25h-36v81q-53 7 -95 29t-71 55.5t-45 76.5t-16 93q0 59 22.5 107.5t61.5 83t91 53.5t112 19t102.5 -9t80.5 -29z" />
    <glyph glyph-name="egrave" unicode="&#xe8;" horiz-adv-x="587" 
d="M136 227q3 -41 19 -71.5t42 -50t59.5 -29t69.5 -9.5q53 0 93.5 8.5t79.5 30.5l27 -76q-25 -12 -47.5 -19.5t-46.5 -12t-51.5 -6.5t-60.5 -2q-68 0 -120 18t-87.5 52t-54 82t-18.5 107q0 58 20.5 106.5t57.5 82.5t86.5 53t108.5 19q60 0 104 -15.5t73 -43t43 -65.5t14 -83
q0 -21 -2 -38.5t-7 -37.5h-402zM457 299q-1 74 -37 105t-117 31q-30 0 -59.5 -8.5t-52.5 -25.5t-38.5 -42.5t-18.5 -59.5h323zM344 563h-64l-103 136l73 47z" />
    <glyph glyph-name="eacute" unicode="&#xe9;" horiz-adv-x="587" 
d="M136 227q3 -41 19 -71.5t42 -50t59.5 -29t69.5 -9.5q53 0 93.5 8.5t79.5 30.5l27 -76q-25 -12 -47.5 -19.5t-46.5 -12t-51.5 -6.5t-60.5 -2q-68 0 -120 18t-87.5 52t-54 82t-18.5 107q0 58 20.5 106.5t57.5 82.5t86.5 53t108.5 19q60 0 104 -15.5t73 -43t43 -65.5t14 -83
q0 -21 -2 -38.5t-7 -37.5h-402zM457 299q-1 74 -37 105t-117 31q-30 0 -59.5 -8.5t-52.5 -25.5t-38.5 -42.5t-18.5 -59.5h323zM381 746l73 -47l-103 -136h-64z" />
    <glyph glyph-name="ecircumflex" unicode="&#xea;" horiz-adv-x="587" 
d="M136 227q3 -41 19 -71.5t42 -50t59.5 -29t69.5 -9.5q53 0 93.5 8.5t79.5 30.5l27 -76q-25 -12 -47.5 -19.5t-46.5 -12t-51.5 -6.5t-60.5 -2q-68 0 -120 18t-87.5 52t-54 82t-18.5 107q0 58 20.5 106.5t57.5 82.5t86.5 53t108.5 19q60 0 104 -15.5t73 -43t43 -65.5t14 -83
q0 -21 -2 -38.5t-7 -37.5h-402zM457 299q-1 74 -37 105t-117 31q-30 0 -59.5 -8.5t-52.5 -25.5t-38.5 -42.5t-18.5 -59.5h323zM319 622l-112 -77l-23 48l123 125h23l124 -125l-23 -48z" />
    <glyph glyph-name="edieresis" unicode="&#xeb;" horiz-adv-x="587" 
d="M136 227q3 -41 19 -71.5t42 -50t59.5 -29t69.5 -9.5q53 0 93.5 8.5t79.5 30.5l27 -76q-25 -12 -47.5 -19.5t-46.5 -12t-51.5 -6.5t-60.5 -2q-68 0 -120 18t-87.5 52t-54 82t-18.5 107q0 58 20.5 106.5t57.5 82.5t86.5 53t108.5 19q60 0 104 -15.5t73 -43t43 -65.5t14 -83
q0 -21 -2 -38.5t-7 -37.5h-402zM457 299q-1 74 -37 105t-117 31q-30 0 -59.5 -8.5t-52.5 -25.5t-38.5 -42.5t-18.5 -59.5h323zM205 681q29 0 45.5 -17t16.5 -43q0 -25 -16.5 -41.5t-45.5 -16.5q-28 0 -44.5 16.5t-16.5 41.5q0 26 16.5 43t44.5 17zM428 681q29 0 45.5 -17
t16.5 -43q0 -25 -16.5 -41.5t-45.5 -16.5q-28 0 -44.5 16.5t-16.5 41.5q0 26 16.5 43t44.5 17z" />
    <glyph glyph-name="igrave" unicode="&#xec;" horiz-adv-x="223" 
d="M158 500v-500h-93v500h93zM152 563h-64l-103 136l73 47z" />
    <glyph glyph-name="iacute" unicode="&#xed;" horiz-adv-x="223" 
d="M158 500v-500h-93v500h93zM172 746l73 -47l-103 -136h-64z" />
    <glyph glyph-name="icircumflex" unicode="&#xee;" horiz-adv-x="223" 
d="M158 500v-500h-93v500h93zM112 622l-112 -77l-23 48l123 125h23l124 -125l-23 -48z" />
    <glyph glyph-name="idieresis" unicode="&#xef;" horiz-adv-x="223" 
d="M158 500v-500h-93v500h93zM0 681q29 0 45.5 -17t16.5 -43q0 -25 -16.5 -41.5t-45.5 -16.5q-28 0 -44.5 16.5t-16.5 41.5q0 26 16.5 43t44.5 17zM223 681q29 0 45.5 -17t16.5 -43q0 -25 -16.5 -41.5t-45.5 -16.5q-28 0 -44.5 16.5t-16.5 41.5q0 26 16.5 43t44.5 17z" />
    <glyph glyph-name="eth" unicode="&#xf0;" horiz-adv-x="607" 
d="M231 603q-33 8 -61.5 10.5t-73.5 3.5l5 76q41 0 85 -5.5t89 -16.5l53 86l65 -29l-49 -79q46 -19 86.5 -50t71 -75t48 -102.5t17.5 -131.5q0 -66 -17.5 -126.5t-59.5 -103.5q-36 -38 -85.5 -54t-105.5 -16q-54 0 -101.5 16.5t-82.5 48.5t-55 78.5t-20 106.5q0 50 20 92
t53.5 73t78.5 48t95 17q60 0 111 -22.5t80 -68.5h6q-9 31 -23 61t-35.5 56t-52 48t-71.5 38l-47 -73l-65 29zM469 230q0 36 -11.5 66t-33.5 52.5t-53.5 35t-71.5 12.5q-80 0 -123.5 -42t-43.5 -121t43.5 -124t123.5 -45q78 0 124 43.5t46 122.5z" />
    <glyph glyph-name="ntilde" unicode="&#xf1;" horiz-adv-x="611" 
d="M146 500l6 -79q36 48 84.5 68.5t102.5 20.5q104 0 155.5 -56.5t51.5 -162.5v-291h-93v292q0 66 -25 104t-89 38q-59 0 -102.5 -22t-78.5 -67v-345h-93v500h81zM136 625q43 48 114 48q25 0 41.5 -6t30.5 -13.5t28 -13.5t34 -6q21 0 36 7t32 24l41 -46q-23 -29 -48.5 -42.5
t-59.5 -13.5q-23 0 -40.5 6.5t-34 14t-32.5 14t-34 6.5q-26 0 -45 -9.5t-35 -29.5z" />
    <glyph glyph-name="ograve" unicode="&#xf2;" horiz-adv-x="638" 
d="M598 250q0 -60 -22 -108t-59.5 -82t-88.5 -52t-109 -18t-109 18t-88.5 52t-59.5 82t-22 108t22 108t59.5 82t88.5 52t109 18t109 -18t88.5 -52t59.5 -82t22 -108zM131 250q0 -87 50 -137t138 -50t138 50t50 137t-50 137t-138 50t-138 -50t-50 -137zM343 563h-64l-103 136
l73 47z" />
    <glyph glyph-name="oacute" unicode="&#xf3;" horiz-adv-x="638" 
d="M598 250q0 -60 -22 -108t-59.5 -82t-88.5 -52t-109 -18t-109 18t-88.5 52t-59.5 82t-22 108t22 108t59.5 82t88.5 52t109 18t109 -18t88.5 -52t59.5 -82t22 -108zM131 250q0 -87 50 -137t138 -50t138 50t50 137t-50 137t-138 50t-138 -50t-50 -137zM382 746l73 -47
l-103 -136h-64z" />
    <glyph glyph-name="ocircumflex" unicode="&#xf4;" horiz-adv-x="638" 
d="M598 250q0 -60 -22 -108t-59.5 -82t-88.5 -52t-109 -18t-109 18t-88.5 52t-59.5 82t-22 108t22 108t59.5 82t88.5 52t109 18t109 -18t88.5 -52t59.5 -82t22 -108zM131 250q0 -87 50 -137t138 -50t138 50t50 137t-50 137t-138 50t-138 -50t-50 -137zM319 622l-112 -77
l-23 48l123 125h23l124 -125l-23 -48z" />
    <glyph glyph-name="otilde" unicode="&#xf5;" horiz-adv-x="638" 
d="M598 250q0 -60 -22 -108t-59.5 -82t-88.5 -52t-109 -18t-109 18t-88.5 52t-59.5 82t-22 108t22 108t59.5 82t88.5 52t109 18t109 -18t88.5 -52t59.5 -82t22 -108zM131 250q0 -87 50 -137t138 -50t138 50t50 137t-50 137t-138 50t-138 -50t-50 -137zM141 625q43 48 114 48
q25 0 41.5 -6t30.5 -13.5t28 -13.5t34 -6q21 0 36 7t32 24l41 -46q-23 -29 -48.5 -42.5t-59.5 -13.5q-23 0 -40.5 6.5t-34 14t-32.5 14t-34 6.5q-26 0 -45 -9.5t-35 -29.5z" />
    <glyph glyph-name="odieresis" unicode="&#xf6;" horiz-adv-x="638" 
d="M598 250q0 -60 -22 -108t-59.5 -82t-88.5 -52t-109 -18t-109 18t-88.5 52t-59.5 82t-22 108t22 108t59.5 82t88.5 52t109 18t109 -18t88.5 -52t59.5 -82t22 -108zM131 250q0 -87 50 -137t138 -50t138 50t50 137t-50 137t-138 50t-138 -50t-50 -137zM207 681
q29 0 45.5 -17t16.5 -43q0 -25 -16.5 -41.5t-45.5 -16.5q-28 0 -44.5 16.5t-16.5 41.5q0 26 16.5 43t44.5 17zM430 681q29 0 45.5 -17t16.5 -43q0 -25 -16.5 -41.5t-45.5 -16.5q-28 0 -44.5 16.5t-16.5 41.5q0 26 16.5 43t44.5 17z" />
    <glyph glyph-name="divide" unicode="&#xf7;" horiz-adv-x="381" 
d="M190 237q32 0 49.5 -19t17.5 -47q0 -29 -17.5 -46t-49.5 -17t-49 17t-17 46q0 28 17 47t49 19zM340 367v-76h-300v76h300zM190 550q32 0 49.5 -19t17.5 -47q0 -29 -17.5 -46t-49.5 -17t-49 17t-17 46q0 28 17 47t49 19z" />
    <glyph glyph-name="oslash" unicode="&#xf8;" horiz-adv-x="638" 
d="M533 518l-37 -62q47 -34 74.5 -86t27.5 -120q0 -60 -22 -108t-59.5 -82t-88.5 -52t-109 -18q-49 0 -91 12l-29 -49l-75 25l32 55q-53 33 -84.5 88t-31.5 129q0 60 22 108t59.5 82t88.5 52t109 18q57 0 107 -18l30 51zM388 427q-16 5 -33 7.5t-36 2.5q-88 0 -138 -50
t-50 -137q0 -100 65 -150zM267 68q12 -2 25 -3.5t27 -1.5q88 0 138 50t50 137q0 86 -51 137z" />
    <glyph glyph-name="ugrave" unicode="&#xf9;" horiz-adv-x="604" 
d="M158 500v-292q0 -65 23.5 -103.5t87.5 -38.5q59 0 100.5 22t76.5 67v345h93v-500h-81l-6 79q-36 -48 -82.5 -68.5t-100.5 -20.5q-104 0 -154 56.5t-50 162.5v291h93zM335 563h-64l-103 136l73 47z" />
    <glyph glyph-name="uacute" unicode="&#xfa;" horiz-adv-x="604" 
d="M158 500v-292q0 -65 23.5 -103.5t87.5 -38.5q59 0 100.5 22t76.5 67v345h93v-500h-81l-6 79q-36 -48 -82.5 -68.5t-100.5 -20.5q-104 0 -154 56.5t-50 162.5v291h93zM351 746l73 -47l-103 -136h-64z" />
    <glyph glyph-name="ucircumflex" unicode="&#xfb;" horiz-adv-x="604" 
d="M158 500v-292q0 -65 23.5 -103.5t87.5 -38.5q59 0 100.5 22t76.5 67v345h93v-500h-81l-6 79q-36 -48 -82.5 -68.5t-100.5 -20.5q-104 0 -154 56.5t-50 162.5v291h93zM302 622l-112 -77l-23 48l123 125h23l124 -125l-23 -48z" />
    <glyph glyph-name="udieresis" unicode="&#xfc;" horiz-adv-x="604" 
d="M158 500v-292q0 -65 23.5 -103.5t87.5 -38.5q59 0 100.5 22t76.5 67v345h93v-500h-81l-6 79q-36 -48 -82.5 -68.5t-100.5 -20.5q-104 0 -154 56.5t-50 162.5v291h93zM190 681q29 0 45.5 -17t16.5 -43q0 -25 -16.5 -41.5t-45.5 -16.5q-28 0 -44.5 16.5t-16.5 41.5
q0 26 16.5 43t44.5 17zM413 681q29 0 45.5 -17t16.5 -43q0 -25 -16.5 -41.5t-45.5 -16.5q-28 0 -44.5 16.5t-16.5 41.5q0 26 16.5 43t44.5 17z" />
    <glyph glyph-name="yacute" unicode="&#xfd;" horiz-adv-x="599" 
d="M128 500l193 -402h4l149 402h100l-246 -596q-20 -48 -63 -75.5t-94 -27.5q-19 0 -33 3t-33 10l14 72q22 -5 39 -5q35 0 60.5 14.5t42.5 55.5l18 45l-254 504h103zM365 746l73 -47l-103 -136h-64z" />
    <glyph glyph-name="thorn" unicode="&#xfe;" horiz-adv-x="609" 
d="M158 730v-238q31 9 63.5 13.5t70.5 4.5q135 0 206 -69t71 -192q0 -57 -16 -104.5t-47.5 -82t-80 -53.5t-112.5 -19q-26 0 -47.5 3t-39.5 9t-34.5 16t-33.5 24v-272h-93v960h93zM158 119q37 -31 73 -41t81 -10q76 0 120 47.5t44 133.5q0 94 -48 140.5t-135 46.5
q-23 0 -41 -1t-33.5 -3.5t-30 -6t-30.5 -8.5v-298z" />
    <glyph glyph-name="ydieresis" unicode="&#xff;" horiz-adv-x="599" 
d="M128 500l193 -402h4l149 402h100l-246 -596q-20 -48 -63 -75.5t-94 -27.5q-19 0 -33 3t-33 10l14 72q22 -5 39 -5q35 0 60.5 14.5t42.5 55.5l18 45l-254 504h103zM197 681q29 0 45.5 -17t16.5 -43q0 -25 -16.5 -41.5t-45.5 -16.5q-28 0 -44.5 16.5t-16.5 41.5
q0 26 16.5 43t44.5 17zM420 681q29 0 45.5 -17t16.5 -43q0 -25 -16.5 -41.5t-45.5 -16.5q-28 0 -44.5 16.5t-16.5 41.5q0 26 16.5 43t44.5 17z" />
    <glyph glyph-name="Amacron" unicode="&#x100;" horiz-adv-x="707" 
d="M406 650l278 -650h-99l-85 197h-299l-81 -197h-98l279 650h105zM232 275h238l-114 283h-9zM516 784v-73h-326v73h326z" />
    <glyph glyph-name="amacron" unicode="&#x101;" horiz-adv-x="602" 
d="M79 466q56 23 103.5 33.5t109.5 10.5q111 0 163.5 -41t52.5 -133v-209q0 -36 12 -48.5t50 -12.5v-66q-17 -5 -31.5 -7.5t-34.5 -2.5q-31 0 -49 22t-21 60q-69 -82 -206 -82q-88 0 -133.5 41t-45.5 112q0 34 10.5 62t36.5 57q34 10 68.5 18t73.5 13t83 8t97 4v28
q0 52 -28.5 76t-101.5 24q-94 0 -189 -41zM418 238q-87 -2 -146.5 -9.5t-108.5 -20.5q-20 -24 -20 -60q0 -41 25.5 -61.5t72.5 -20.5q50 0 92.5 15t84.5 51v106zM450 642v-70h-314v70h314z" />
    <glyph glyph-name="Abreve" unicode="&#x102;" horiz-adv-x="707" 
d="M406 650l278 -650h-99l-85 197h-299l-81 -197h-98l279 650h105zM232 275h238l-114 283h-9zM257 829q14 -29 39.5 -44t56.5 -15q68 0 97 59l60 -27q-17 -53 -58.5 -79t-98.5 -26q-56 0 -98.5 27t-57.5 78z" />
    <glyph glyph-name="abreve" unicode="&#x103;" horiz-adv-x="602" 
d="M79 466q56 23 103.5 33.5t109.5 10.5q111 0 163.5 -41t52.5 -133v-209q0 -36 12 -48.5t50 -12.5v-66q-17 -5 -31.5 -7.5t-34.5 -2.5q-31 0 -49 22t-21 60q-69 -82 -206 -82q-88 0 -133.5 41t-45.5 112q0 34 10.5 62t36.5 57q34 10 68.5 18t73.5 13t83 8t97 4v28
q0 52 -28.5 76t-101.5 24q-94 0 -189 -41zM418 238q-87 -2 -146.5 -9.5t-108.5 -20.5q-20 -24 -20 -60q0 -41 25.5 -61.5t72.5 -20.5q50 0 92.5 15t84.5 51v106zM230 679q5 -23 21.5 -37t46.5 -14t46.5 14t21.5 37l70 -13q-13 -55 -51.5 -82t-86.5 -27t-86.5 27t-51.5 82z
" />
    <glyph glyph-name="Aogonek" unicode="&#x104;" horiz-adv-x="707" 
d="M404 650l278 -650q-32 -17 -43 -34.5t-11 -37.5q0 -17 10.5 -30.5t38.5 -13.5q7 0 14.5 1t16.5 4l-16 -65q-10 -2 -19.5 -3t-17.5 -1q-48 0 -76 24.5t-28 62.5q0 25 13.5 51.5t43.5 41.5h-23l-85 197h-300l-80 -197h-95l279 650h100zM230 275h240l-114 283h-11z" />
    <glyph glyph-name="aogonek" unicode="&#x105;" horiz-adv-x="602" 
d="M79 466q56 23 103.5 33.5t109.5 10.5q111 0 163.5 -41t52.5 -133v-209q0 -36 12 -48.5t50 -12.5v-66q-30 -15 -39.5 -31.5t-9.5 -35.5q0 -16 9 -26.5t35 -10.5q14 0 29 4l-17 -65q-9 -2 -17.5 -3t-16.5 -1q-51 0 -72.5 24t-21.5 59q0 22 11 42.5t34 36.5q-26 5 -42 25.5
t-18 53.5q-69 -82 -206 -82q-88 0 -133.5 41t-45.5 112q0 34 10.5 62t36.5 57q34 10 68.5 18t73.5 13t83 8t97 4v28q0 52 -28.5 76t-101.5 24q-94 0 -189 -41zM418 238q-87 -2 -146.5 -9.5t-108.5 -20.5q-20 -24 -20 -60q0 -41 25.5 -61.5t72.5 -20.5q50 0 92.5 15t84.5 51
v106z" />
    <glyph glyph-name="Cacute" unicode="&#x106;" horiz-adv-x="660" 
d="M584 518q-48 35 -93.5 51t-99.5 16q-58 0 -105.5 -19.5t-81 -54t-51.5 -82t-18 -103.5q0 -63 20 -110.5t54.5 -80t81 -48.5t99.5 -16q30 0 56 3t50 10.5t48 19.5t50 30l28 -82q-54 -37 -110.5 -51t-131.5 -14q-65 0 -126.5 20.5t-109 62t-76 105.5t-28.5 151
q0 75 28 137.5t76 106.5t112 68.5t135 24.5q73 0 126.5 -17t104.5 -55zM440 881l78 -47l-98 -136h-69z" />
    <glyph glyph-name="cacute" unicode="&#x107;" horiz-adv-x="548" 
d="M471 403q-33 17 -66.5 25t-71.5 8q-94 0 -146.5 -48t-52.5 -139q0 -41 14.5 -75t40 -58t58.5 -37t71 -13q93 0 170 42l28 -73q-48 -26 -96 -35.5t-107 -9.5q-63 0 -113.5 19.5t-86 54t-54.5 81.5t-19 102q0 59 22.5 107.5t61.5 83t91 53.5t112 19t102.5 -9t80.5 -29z
M385 746l73 -47l-103 -136h-64z" />
    <glyph glyph-name="Ccircumflex" unicode="&#x108;" horiz-adv-x="660" 
d="M584 518q-48 35 -93.5 51t-99.5 16q-58 0 -105.5 -19.5t-81 -54t-51.5 -82t-18 -103.5q0 -63 20 -110.5t54.5 -80t81 -48.5t99.5 -16q30 0 56 3t50 10.5t48 19.5t50 30l28 -82q-54 -37 -110.5 -51t-131.5 -14q-65 0 -126.5 20.5t-109 62t-76 105.5t-28.5 151
q0 75 28 137.5t76 106.5t112 68.5t135 24.5q73 0 126.5 -17t104.5 -55zM391 777l-132 -86l-21 54l141 119h23l142 -119l-21 -54z" />
    <glyph glyph-name="ccircumflex" unicode="&#x109;" horiz-adv-x="548" 
d="M471 403q-33 17 -66.5 25t-71.5 8q-94 0 -146.5 -48t-52.5 -139q0 -41 14.5 -75t40 -58t58.5 -37t71 -13q93 0 170 42l28 -73q-48 -26 -96 -35.5t-107 -9.5q-63 0 -113.5 19.5t-86 54t-54.5 81.5t-19 102q0 59 22.5 107.5t61.5 83t91 53.5t112 19t102.5 -9t80.5 -29z
M329 622l-112 -77l-23 48l123 125h23l124 -125l-23 -48z" />
    <glyph glyph-name="Cdotaccent" unicode="&#x10a;" horiz-adv-x="660" 
d="M584 518q-48 35 -93.5 51t-99.5 16q-58 0 -105.5 -19.5t-81 -54t-51.5 -82t-18 -103.5q0 -63 20 -110.5t54.5 -80t81 -48.5t99.5 -16q30 0 56 3t50 10.5t48 19.5t50 30l28 -82q-54 -37 -110.5 -51t-131.5 -14q-65 0 -126.5 20.5t-109 62t-76 105.5t-28.5 151
q0 75 28 137.5t76 106.5t112 68.5t135 24.5q73 0 126.5 -17t104.5 -55zM397 840q32 0 49.5 -19t17.5 -47q0 -29 -17.5 -46t-49.5 -17t-49 17t-17 46q0 28 17 47t49 19z" />
    <glyph glyph-name="cdotaccent" unicode="&#x10b;" horiz-adv-x="548" 
d="M471 403q-33 17 -66.5 25t-71.5 8q-94 0 -146.5 -48t-52.5 -139q0 -41 14.5 -75t40 -58t58.5 -37t71 -13q93 0 170 42l28 -73q-48 -26 -96 -35.5t-107 -9.5q-63 0 -113.5 19.5t-86 54t-54.5 81.5t-19 102q0 59 22.5 107.5t61.5 83t91 53.5t112 19t102.5 -9t80.5 -29z
M336 685q32 0 49.5 -19t17.5 -47q0 -29 -17.5 -46t-49.5 -17t-49 17t-17 46q0 28 17 47t49 19z" />
    <glyph glyph-name="Ccaron" unicode="&#x10c;" horiz-adv-x="660" 
d="M584 518q-48 35 -93.5 51t-99.5 16q-58 0 -105.5 -19.5t-81 -54t-51.5 -82t-18 -103.5q0 -63 20 -110.5t54.5 -80t81 -48.5t99.5 -16q30 0 56 3t50 10.5t48 19.5t50 30l28 -82q-54 -37 -110.5 -51t-131.5 -14q-65 0 -126.5 20.5t-109 62t-76 105.5t-28.5 151
q0 75 28 137.5t76 106.5t112 68.5t135 24.5q73 0 126.5 -17t104.5 -55zM395 778l132 86l21 -54l-141 -119h-23l-142 119l21 54z" />
    <glyph glyph-name="ccaron" unicode="&#x10d;" horiz-adv-x="548" 
d="M328 646l112 77l23 -48l-123 -125h-23l-124 125l23 48zM471 403q-33 17 -66.5 25t-71.5 8q-94 0 -146.5 -48t-52.5 -139q0 -41 14.5 -75t40 -58t58.5 -37t71 -13q93 0 170 42l28 -73q-48 -26 -96 -35.5t-107 -9.5q-63 0 -113.5 19.5t-86 54t-54.5 81.5t-19 102
q0 59 22.5 107.5t61.5 83t91 53.5t112 19t102.5 -9t80.5 -29z" />
    <glyph glyph-name="Dcaron" unicode="&#x10e;" horiz-adv-x="700" 
d="M306 650q82 0 147.5 -22.5t111.5 -64.5t70.5 -103t24.5 -139q0 -80 -28 -140t-77.5 -100t-118.5 -60.5t-150 -20.5h-221v650h241zM160 79h134q58 0 108 13t86 42t56.5 75t20.5 112q0 67 -18.5 114.5t-52.5 78t-82 44.5t-106 14h-146v-493zM312 778l132 86l21 -54
l-141 -119h-23l-142 119l21 54z" />
    <glyph glyph-name="dcaron" unicode="&#x10f;" horiz-adv-x="712" 
d="M554 730v-712q-30 -8 -57.5 -13.5t-56.5 -8.5t-57 -4.5t-70 -1.5q-70 0 -118.5 16.5t-83 49.5t-53 82t-18.5 114q0 58 19.5 106t54.5 81.5t83.5 52t106.5 18.5q52 0 87.5 -8t69.5 -30v258h93zM461 387q-63 48 -149 48q-38 0 -70.5 -11.5t-56.5 -34t-37.5 -56.5t-13.5 -80
q0 -48 14 -83.5t39.5 -58.5t60 -34.5t75.5 -11.5q42 0 72.5 3.5t65.5 12.5v306zM607 549q30 14 46 30.5t16 39.5q-30 0 -43.5 16.5t-13.5 37.5q0 10 3 20t10 18.5t18.5 14t28.5 5.5q35 0 53 -25.5t18 -62.5q0 -19 -7 -39.5t-20.5 -39t-34.5 -34t-49 -24.5z" />
    <glyph glyph-name="Dcroat" unicode="&#x110;" horiz-adv-x="706" 
d="M312 650q82 0 147.5 -22.5t111.5 -64.5t70.5 -103t24.5 -139q0 -80 -28 -140t-77.5 -100t-118.5 -60.5t-150 -20.5h-221v294h-66v75h66v281h241zM166 369h163v-75h-163v-215h134q58 0 108 13t86 42t56.5 75t20.5 112q0 67 -18.5 114.5t-52.5 78t-82 44.5t-106 14h-146
v-203z" />
    <glyph glyph-name="dcroat" unicode="&#x111;" horiz-adv-x="619" 
d="M554 730v-85h72v-73h-72v-554q-30 -8 -57.5 -13.5t-56.5 -8.5t-62 -4.5t-75 -1.5q-60 0 -108.5 16.5t-83 49.5t-53 82t-18.5 114q0 58 19.5 106t54.5 81.5t83.5 52t106.5 18.5q27 0 48.5 -2.5t39.5 -7.5t34.5 -13t34.5 -20v105h-132v73h132v85h93zM461 390
q-37 23 -70.5 34t-78.5 11q-38 0 -70.5 -11.5t-56.5 -34t-37.5 -56.5t-13.5 -80q0 -48 14 -83.5t39.5 -58.5t60 -34.5t75.5 -11.5q22 0 39 1t33 3.5t31.5 5.5t34.5 8v307z" />
    <glyph glyph-name="Emacron" unicode="&#x112;" horiz-adv-x="541" 
d="M65 650h419v-79h-323v-194h290v-78h-290v-220h337v-79h-433v650zM441 784v-73h-326v73h326z" />
    <glyph glyph-name="emacron" unicode="&#x113;" horiz-adv-x="587" 
d="M136 227q3 -41 19 -71.5t42 -50t59.5 -29t69.5 -9.5q53 0 93.5 8.5t79.5 30.5l27 -76q-25 -12 -47.5 -19.5t-46.5 -12t-51.5 -6.5t-60.5 -2q-68 0 -120 18t-87.5 52t-54 82t-18.5 107q0 58 20.5 106.5t57.5 82.5t86.5 53t108.5 19q60 0 104 -15.5t73 -43t43 -65.5t14 -83
q0 -21 -2 -38.5t-7 -37.5h-402zM457 299q-1 74 -37 105t-117 31q-30 0 -59.5 -8.5t-52.5 -25.5t-38.5 -42.5t-18.5 -59.5h323zM466 642v-70h-314v70h314z" />
    <glyph glyph-name="Ebreve" unicode="&#x114;" horiz-adv-x="541" 
d="M65 650h419v-79h-323v-194h290v-78h-290v-220h337v-79h-433v650zM187 829q14 -29 39.5 -44t56.5 -15q68 0 97 59l60 -27q-17 -53 -58.5 -79t-98.5 -26q-56 0 -98.5 27t-57.5 78z" />
    <glyph glyph-name="ebreve" unicode="&#x115;" horiz-adv-x="587" 
d="M136 227q3 -41 19 -71.5t42 -50t59.5 -29t69.5 -9.5q53 0 93.5 8.5t79.5 30.5l27 -76q-25 -12 -47.5 -19.5t-46.5 -12t-51.5 -6.5t-60.5 -2q-68 0 -120 18t-87.5 52t-54 82t-18.5 107q0 58 20.5 106.5t57.5 82.5t86.5 53t108.5 19q60 0 104 -15.5t73 -43t43 -65.5t14 -83
q0 -21 -2 -38.5t-7 -37.5h-402zM457 299q-1 74 -37 105t-117 31q-30 0 -59.5 -8.5t-52.5 -25.5t-38.5 -42.5t-18.5 -59.5h323zM242 669q5 -23 21.5 -37t46.5 -14t46.5 14t21.5 37l70 -13q-13 -55 -51.5 -82t-86.5 -27t-86.5 27t-51.5 82z" />
    <glyph glyph-name="Edotaccent" unicode="&#x116;" horiz-adv-x="541" 
d="M65 650h419v-79h-323v-194h290v-78h-290v-220h337v-79h-433v650zM283 826q32 0 49.5 -19t17.5 -47q0 -29 -17.5 -46t-49.5 -17t-49 17t-17 46q0 28 17 47t49 19z" />
    <glyph glyph-name="edotaccent" unicode="&#x117;" horiz-adv-x="587" 
d="M136 227q3 -41 19 -71.5t42 -50t59.5 -29t69.5 -9.5q53 0 93.5 8.5t79.5 30.5l27 -76q-25 -12 -47.5 -19.5t-46.5 -12t-51.5 -6.5t-60.5 -2q-68 0 -120 18t-87.5 52t-54 82t-18.5 107q0 58 20.5 106.5t57.5 82.5t86.5 53t108.5 19q60 0 104 -15.5t73 -43t43 -65.5t14 -83
q0 -21 -2 -38.5t-7 -37.5h-402zM457 299q-1 74 -37 105t-117 31q-30 0 -59.5 -8.5t-52.5 -25.5t-38.5 -42.5t-18.5 -59.5h323zM314 689q32 0 49.5 -19t17.5 -47q0 -29 -17.5 -46t-49.5 -17t-49 17t-17 46q0 28 17 47t49 19z" />
    <glyph glyph-name="Eogonek" unicode="&#x118;" horiz-adv-x="541" 
d="M65 650h419v-79h-323v-194h290v-78h-290v-220h337v-79q-32 -17 -43 -34.5t-11 -37.5q0 -17 10.5 -30.5t38.5 -13.5q7 0 14.5 1t16.5 4l-16 -65q-10 -2 -19.5 -3t-17.5 -1q-48 0 -76 24.5t-28 62.5q0 25 13.5 51.5t43.5 41.5h-359v650z" />
    <glyph glyph-name="eogonek" unicode="&#x119;" horiz-adv-x="587" 
d="M136 227q3 -41 19 -71.5t42 -50t59.5 -29t69.5 -9.5q53 0 93.5 8.5t79.5 30.5l27 -76q-20 -8 -34.5 -25.5t-14.5 -41.5q0 -16 9 -26.5t35 -10.5q14 0 29 4l-17 -65q-9 -2 -17.5 -3t-16.5 -1q-51 0 -72.5 24t-21.5 59q0 27 15 53q-41 -7 -100 -7q-68 0 -120 18t-87.5 52
t-54 82t-18.5 107q0 58 20.5 106.5t57.5 82.5t86.5 53t108.5 19q60 0 104 -15.5t73 -43t43 -65.5t14 -83q0 -21 -2 -38.5t-7 -37.5h-402zM457 299q-1 74 -37 105t-117 31q-30 0 -59.5 -8.5t-52.5 -25.5t-38.5 -42.5t-18.5 -59.5h323z" />
    <glyph glyph-name="Ecaron" unicode="&#x11a;" horiz-adv-x="541" 
d="M65 650h419v-79h-323v-194h290v-78h-290v-220h337v-79h-433v650zM285 778l132 86l21 -54l-141 -119h-23l-142 119l21 54z" />
    <glyph glyph-name="ecaron" unicode="&#x11b;" horiz-adv-x="587" 
d="M136 227q3 -41 19 -71.5t42 -50t59.5 -29t69.5 -9.5q53 0 93.5 8.5t79.5 30.5l27 -76q-25 -12 -47.5 -19.5t-46.5 -12t-51.5 -6.5t-60.5 -2q-68 0 -120 18t-87.5 52t-54 82t-18.5 107q0 58 20.5 106.5t57.5 82.5t86.5 53t108.5 19q60 0 104 -15.5t73 -43t43 -65.5t14 -83
q0 -21 -2 -38.5t-7 -37.5h-402zM457 299q-1 74 -37 105t-117 31q-30 0 -59.5 -8.5t-52.5 -25.5t-38.5 -42.5t-18.5 -59.5h323zM316 646l112 77l23 -48l-123 -125h-23l-124 125l23 48z" />
    <glyph glyph-name="Gcircumflex" unicode="&#x11c;" horiz-adv-x="700" 
d="M645 347v-280q-57 -42 -123 -61t-145 -19q-69 0 -130.5 22t-107 64.5t-72.5 105.5t-27 146q0 75 27.5 137.5t75 107t110.5 69t135 24.5q73 0 132.5 -17t111.5 -55l-38 -73q-48 35 -100 50.5t-106 15.5q-58 0 -105 -19.5t-80 -54t-50.5 -82t-17.5 -103.5
q0 -59 19.5 -106.5t53.5 -80.5t80 -51t99 -18q51 0 90 8.5t76 28.5v166h-170v75h262zM382 777l-132 -86l-21 54l141 119h23l142 -119l-21 -54z" />
    <glyph glyph-name="gcircumflex" unicode="&#x11d;" horiz-adv-x="582" 
d="M567 444h-111q29 -23 42 -49t13 -62q0 -38 -15 -70t-43.5 -55.5t-70 -37t-94.5 -13.5q-79 0 -131 26q-15 -6 -24 -22t-9 -29q0 -23 19 -40.5t66 -17.5h128q46 0 85 -4t81 -15q44 -50 44 -117q0 -55 -28 -90.5t-70.5 -56.5t-94 -29t-97.5 -8q-111 0 -169 40.5t-58 117.5
q0 38 15.5 65t51.5 50q-28 14 -42.5 40t-14.5 53q0 31 16 60t46 46q-36 42 -36 107q0 81 60 129t170 48h271v-66zM225 -2q-20 0 -35 1t-29 4q-47 -28 -47 -76q0 -53 40.5 -76.5t112.5 -23.5q25 0 59 4.5t64.5 16.5t51.5 33t21 54q0 14 -4 28t-12 26q-28 6 -51 7.5t-51 1.5
h-120zM151 333q0 -52 35.5 -78.5t101.5 -26.5q60 0 98.5 25.5t38.5 79.5q0 27 -10.5 47.5t-29 34t-43.5 20t-54 6.5q-63 0 -100 -28t-37 -80zM294 622l-112 -77l-23 48l123 125h23l124 -125l-23 -48z" />
    <glyph glyph-name="Gbreve" unicode="&#x11e;" horiz-adv-x="700" 
d="M645 347v-280q-57 -42 -123 -61t-145 -19q-69 0 -130.5 22t-107 64.5t-72.5 105.5t-27 146q0 75 27.5 137.5t75 107t110.5 69t135 24.5q73 0 132.5 -17t111.5 -55l-38 -73q-48 35 -100 50.5t-106 15.5q-58 0 -105 -19.5t-80 -54t-50.5 -82t-17.5 -103.5
q0 -59 19.5 -106.5t53.5 -80.5t80 -51t99 -18q51 0 90 8.5t76 28.5v166h-170v75h262zM288 839q14 -29 39.5 -44t56.5 -15q68 0 97 59l60 -27q-17 -53 -58.5 -79t-98.5 -26q-56 0 -98.5 27t-57.5 78z" />
    <glyph glyph-name="gbreve" unicode="&#x11f;" horiz-adv-x="582" 
d="M567 444h-111q29 -23 42 -49t13 -62q0 -38 -15 -70t-43.5 -55.5t-70 -37t-94.5 -13.5q-79 0 -131 26q-15 -6 -24 -22t-9 -29q0 -23 19 -40.5t66 -17.5h128q46 0 85 -4t81 -15q44 -50 44 -117q0 -55 -28 -90.5t-70.5 -56.5t-94 -29t-97.5 -8q-111 0 -169 40.5t-58 117.5
q0 38 15.5 65t51.5 50q-28 14 -42.5 40t-14.5 53q0 31 16 60t46 46q-36 42 -36 107q0 81 60 129t170 48h271v-66zM225 -2q-20 0 -35 1t-29 4q-47 -28 -47 -76q0 -53 40.5 -76.5t112.5 -23.5q25 0 59 4.5t64.5 16.5t51.5 33t21 54q0 14 -4 28t-12 26q-28 6 -51 7.5t-51 1.5
h-120zM151 333q0 -52 35.5 -78.5t101.5 -26.5q60 0 98.5 25.5t38.5 79.5q0 27 -10.5 47.5t-29 34t-43.5 20t-54 6.5q-63 0 -100 -28t-37 -80zM232 679q5 -23 21.5 -37t46.5 -14t46.5 14t21.5 37l70 -13q-13 -55 -51.5 -82t-86.5 -27t-86.5 27t-51.5 82z" />
    <glyph glyph-name="Gdotaccent" unicode="&#x120;" horiz-adv-x="700" 
d="M645 347v-280q-57 -42 -123 -61t-145 -19q-69 0 -130.5 22t-107 64.5t-72.5 105.5t-27 146q0 75 27.5 137.5t75 107t110.5 69t135 24.5q73 0 132.5 -17t111.5 -55l-38 -73q-48 35 -100 50.5t-106 15.5q-58 0 -105 -19.5t-80 -54t-50.5 -82t-17.5 -103.5
q0 -59 19.5 -106.5t53.5 -80.5t80 -51t99 -18q51 0 90 8.5t76 28.5v166h-170v75h262zM393 840q32 0 49.5 -19t17.5 -47q0 -29 -17.5 -46t-49.5 -17t-49 17t-17 46q0 28 17 47t49 19z" />
    <glyph glyph-name="gdotaccent" unicode="&#x121;" horiz-adv-x="582" 
d="M567 444h-111q29 -23 42 -49t13 -62q0 -38 -15 -70t-43.5 -55.5t-70 -37t-94.5 -13.5q-79 0 -131 26q-15 -6 -24 -22t-9 -29q0 -23 19 -40.5t66 -17.5h128q46 0 85 -4t81 -15q44 -50 44 -117q0 -55 -28 -90.5t-70.5 -56.5t-94 -29t-97.5 -8q-111 0 -169 40.5t-58 117.5
q0 38 15.5 65t51.5 50q-28 14 -42.5 40t-14.5 53q0 31 16 60t46 46q-36 42 -36 107q0 81 60 129t170 48h271v-66zM225 -2q-20 0 -35 1t-29 4q-47 -28 -47 -76q0 -53 40.5 -76.5t112.5 -23.5q25 0 59 4.5t64.5 16.5t51.5 33t21 54q0 14 -4 28t-12 26q-28 6 -51 7.5t-51 1.5
h-120zM151 333q0 -52 35.5 -78.5t101.5 -26.5q60 0 98.5 25.5t38.5 79.5q0 27 -10.5 47.5t-29 34t-43.5 20t-54 6.5q-63 0 -100 -28t-37 -80zM287 685q32 0 49.5 -19t17.5 -47q0 -29 -17.5 -46t-49.5 -17t-49 17t-17 46q0 28 17 47t49 19z" />
    <glyph glyph-name="Gcommaaccent" unicode="&#x122;" horiz-adv-x="700" 
d="M645 347v-280q-57 -42 -123 -61t-145 -19q-69 0 -130.5 22t-107 64.5t-72.5 105.5t-27 146q0 75 27.5 137.5t75 107t110.5 69t135 24.5q73 0 132.5 -17t111.5 -55l-38 -73q-48 35 -100 50.5t-106 15.5q-58 0 -105 -19.5t-80 -54t-50.5 -82t-17.5 -103.5
q0 -59 19.5 -106.5t53.5 -80.5t80 -51t99 -18q51 0 90 8.5t76 28.5v166h-170v75h262zM329 -229q62 24 62 68q-30 0 -43.5 16.5t-13.5 37.5q0 10 3 20t10 18.5t18.5 14t28.5 5.5q35 0 53 -25.5t18 -62.5q0 -19 -7 -39.5t-20.5 -39t-34.5 -34t-49 -24.5z" />
    <glyph glyph-name="gcommaaccent" unicode="&#x123;" horiz-adv-x="582" 
d="M567 444h-111q29 -23 42 -49t13 -62q0 -38 -15 -70t-43.5 -55.5t-70 -37t-94.5 -13.5q-79 0 -131 26q-15 -6 -24 -22t-9 -29q0 -23 19 -40.5t66 -17.5h128q46 0 85 -4t81 -15q44 -50 44 -117q0 -55 -28 -90.5t-70.5 -56.5t-94 -29t-97.5 -8q-111 0 -169 40.5t-58 117.5
q0 38 15.5 65t51.5 50q-28 14 -42.5 40t-14.5 53q0 31 16 60t46 46q-36 42 -36 107q0 81 60 129t170 48h271v-66zM225 -2q-20 0 -35 1t-29 4q-47 -28 -47 -76q0 -53 40.5 -76.5t112.5 -23.5q25 0 59 4.5t64.5 16.5t51.5 33t21 54q0 14 -4 28t-12 26q-28 6 -51 7.5t-51 1.5
h-120zM151 333q0 -52 35.5 -78.5t101.5 -26.5q60 0 98.5 25.5t38.5 79.5q0 27 -10.5 47.5t-29 34t-43.5 20t-54 6.5q-63 0 -100 -28t-37 -80zM357.003 732.996q-29.998 -14 -45.9971 -30.498q-15.999 -16.499 -15.999 -39.498q29.998 0 43.4971 -16.499t13.499 -37.498
q0 -9.99902 -3 -19.998q-2.99902 -10 -9.99902 -18.499q-7 -8.5 -18.499 -13.999q-11.499 -5.5 -28.498 -5.5q-34.998 0 -52.9971 25.498q-17.999 25.499 -17.999 62.4971q0 18.998 7 39.4971q6.99902 20.499 20.499 38.998q13.499 18.498 34.4971 33.9971
q20.999 15.5 48.9971 24.499z" />
    <glyph glyph-name="Hcircumflex" unicode="&#x124;" horiz-adv-x="669" 
d="M604 650v-650h-95v303h-349v-303h-95v650h95v-270h349v270h95zM334 777l-132 -86l-21 54l141 119h23l142 -119l-21 -54z" />
    <glyph glyph-name="hcircumflex" unicode="&#x125;" horiz-adv-x="610" 
d="M158 730v-302q35 44 82.5 63t98.5 19q104 0 155.5 -56.5t51.5 -162.5v-291h-93v292q0 66 -25 104t-89 38q-56 0 -100.5 -22t-80.5 -66v-346h-93v730h93zM108 823l-112 -77l-23 48l123 125h23l124 -125l-23 -48z" />
    <glyph glyph-name="Hbar" unicode="&#x126;" horiz-adv-x="669" 
d="M160 650v-102h349v102h95v-102h45v-70h-45v-478h-95v303h-349v-303h-95v478h-45v70h45v102h95zM160 380h349v98h-349v-98z" />
    <glyph glyph-name="hbar" unicode="&#x127;" horiz-adv-x="621" 
d="M169 730v-85h175v-73h-175v-144q35 44 82.5 63t98.5 19q104 0 155.5 -56.5t51.5 -162.5v-291h-93v292q0 66 -25 104t-89 38q-56 0 -100.5 -22t-80.5 -66v-346h-93v572h-76v73h76v85h93z" />
    <glyph glyph-name="Itilde" unicode="&#x128;" horiz-adv-x="225" 
d="M160 650v-650h-95v650h95zM-68 765q22 22 52.5 33.5t64.5 11.5q24 0 41 -6t32 -12.5t29.5 -12.5t34.5 -6q21 0 36 6t32 23l41 -48q-43 -55 -108 -55q-23 0 -41 6t-35 13.5t-33.5 13.5t-34.5 6q-49 0 -83 -39z" />
    <glyph glyph-name="itilde" unicode="&#x129;" horiz-adv-x="223" 
d="M158 500v-500h-93v500h93zM-65 625q43 48 114 48q25 0 41.5 -6t30.5 -13.5t28 -13.5t34 -6q21 0 36 7t32 24l41 -46q-23 -29 -48.5 -42.5t-59.5 -13.5q-23 0 -40.5 6.5t-34 14t-32.5 14t-34 6.5q-26 0 -45 -9.5t-35 -29.5z" />
    <glyph glyph-name="uni012A" unicode="&#x12a;" horiz-adv-x="225" 
d="M160 650v-650h-95v650h95zM277 791v-73h-326v73h326z" />
    <glyph glyph-name="imacron" unicode="&#x12b;" horiz-adv-x="223" 
d="M158 500v-500h-93v500h93zM269 642v-70h-314v70h314z" />
    <glyph glyph-name="Ibreve" unicode="&#x12c;" horiz-adv-x="225" 
d="M160 650v-650h-95v650h95zM17 829q14 -29 39.5 -44t56.5 -15q68 0 97 59l60 -27q-17 -53 -58.5 -79t-98.5 -26q-56 0 -98.5 27t-57.5 78z" />
    <glyph glyph-name="Iogonek" unicode="&#x12e;" horiz-adv-x="225" 
d="M160 650v-650q-32 -17 -43 -34.5t-11 -37.5q0 -17 10.5 -30.5t38.5 -13.5q7 0 14.5 1t16.5 4l-16 -65q-10 -2 -19.5 -3t-17.5 -1q-48 0 -76 24.5t-28 62.5q0 25 13.5 51.5t43.5 41.5h-21v650h95z" />
    <glyph glyph-name="iogonek" unicode="&#x12f;" horiz-adv-x="223" 
d="M158 500v-500q-30 -15 -39.5 -31.5t-9.5 -35.5q0 -16 9 -26.5t35 -10.5q14 0 29 4l-17 -65q-9 -2 -17.5 -3t-16.5 -1q-51 0 -72.5 24t-21.5 59q0 23 12.5 47.5t39.5 38.5h-24v500h93zM112 706q31 0 48 -18.5t17 -44.5q0 -25 -17 -44t-48 -19t-48 19t-17 44q0 26 17 44.5
t48 18.5z" />
    <glyph glyph-name="Idotaccent" unicode="&#x130;" horiz-adv-x="225" 
d="M160 650v-650h-95v650h95zM116 841q32 0 49.5 -19t17.5 -47q0 -29 -17.5 -46t-49.5 -17t-49 17t-17 46q0 28 17 47t49 19z" />
    <glyph glyph-name="dotlessi" unicode="&#x131;" horiz-adv-x="223" 
d="M158 500v-500h-93v500h93z" />
    <glyph glyph-name="Jcircumflex" unicode="&#x134;" horiz-adv-x="244" 
d="M179 650v-632q0 -67 -17 -113.5t-47.5 -77t-72.5 -47t-91 -23.5l-30 78q40 6 71 16.5t51.5 30.5t31 53.5t10.5 85.5v629h94zM134 769l-132 -86l-21 54l141 119h23l142 -119l-21 -54z" />
    <glyph glyph-name="jcircumflex" unicode="&#x135;" horiz-adv-x="233" 
d="M168 500v-529q0 -101 -52 -156.5t-149 -57.5l-7 79q59 4 86.5 32t27.5 86v546h94zM122 622l-112 -77l-23 48l123 125h23l124 -125l-23 -48z" />
    <glyph glyph-name="Kcommaaccent" unicode="&#x136;" horiz-adv-x="634" 
d="M161 650v-341l313 341h119l-252 -265l279 -385h-113l-229 320l-117 -111v-209h-96v650h96zM237 -170q62 24 62 68q-30 0 -43.5 16.5t-13.5 37.5q0 10 3 20t10 18.5t18.5 14t28.5 5.5q35 0 53 -25.5t18 -62.5q0 -19 -7 -39.5t-20.5 -39t-34.5 -34t-49 -24.5z" />
    <glyph glyph-name="kcommaaccent" unicode="&#x137;" horiz-adv-x="579" 
d="M157 730v-438l80 53l174 155h109l2 -10l-217 -189l227 -293l-3 -8h-105l-190 255l-77 -43v-212h-92v730h92zM223 -199q30 14 46 30.5t16 39.5q-30 0 -43.5 16.5t-13.5 37.5q0 10 3 20t10 18.5t18.5 14t28.5 5.5q35 0 53 -25.5t18 -62.5q0 -19 -7 -39.5t-20.5 -39
t-34.5 -34t-49 -24.5z" />
    <glyph glyph-name="kgreenlandic" unicode="&#x138;" horiz-adv-x="579" 
d="M158 500v-224l254 224h110l4 -9l-231 -194l264 -289l-2 -8h-111l-216 246l-72 -60v-186h-93v500h93z" />
    <glyph glyph-name="Lacute" unicode="&#x139;" horiz-adv-x="504" 
d="M467 80v-80h-402v650h96v-570h306zM167 881l78 -47l-98 -136h-69z" />
    <glyph glyph-name="lacute" unicode="&#x13a;" horiz-adv-x="240" 
d="M157 730v-582q0 -37 15.5 -52.5t57.5 -15.5v-84q-6 -1 -12 -1.5t-12 -0.5q-40 0 -67 11.5t-43.5 32.5t-23.5 51.5t-7 68.5v572h92zM168 956l73 -47l-103 -136h-64z" />
    <glyph glyph-name="Lcommaaccent" unicode="&#x13b;" horiz-adv-x="504" 
d="M467 80v-80h-402v650h96v-570h306zM192 -223q62 24 62 68q-30 0 -43.5 16.5t-13.5 37.5q0 10 3 20t10 18.5t18.5 14t28.5 5.5q35 0 53 -25.5t18 -62.5q0 -19 -7 -39.5t-20.5 -39t-34.5 -34t-49 -24.5z" />
    <glyph glyph-name="lcommaaccent" unicode="&#x13c;" horiz-adv-x="240" 
d="M157 730v-582q0 -37 15.5 -52.5t57.5 -15.5v-84q-6 -1 -12 -1.5t-12 -0.5q-40 0 -67 11.5t-43.5 32.5t-23.5 51.5t-7 68.5v572h92zM78 -225q30 14 46 30.5t16 39.5q-30 0 -43.5 16.5t-13.5 37.5q0 10 3 20t10 18.5t18.5 14t28.5 5.5q35 0 53 -25.5t18 -62.5
q0 -19 -7 -39.5t-20.5 -39t-34.5 -34t-49 -24.5z" />
    <glyph glyph-name="Lcaron" unicode="&#x13d;" horiz-adv-x="504" 
d="M467 80v-80h-402v650h96v-570h306zM290 472q62 24 62 68q-30 0 -43.5 16.5t-13.5 37.5q0 10 3 20t10 18.5t18.5 14t28.5 5.5q35 0 53 -25.5t18 -62.5q0 -19 -7 -39.5t-20.5 -39t-34.5 -34t-49 -24.5z" />
    <glyph glyph-name="lcaron" unicode="&#x13e;" horiz-adv-x="336" 
d="M157 730v-582q0 -37 15.5 -52.5t57.5 -15.5v-84q-6 -1 -12 -1.5t-12 -0.5q-40 0 -67 11.5t-43.5 32.5t-23.5 51.5t-7 68.5v572h92zM215 556q30 14 46 30.5t16 39.5q-30 0 -43.5 16.5t-13.5 37.5q0 10 3 20t10 18.5t18.5 14t28.5 5.5q35 0 53 -25.5t18 -62.5
q0 -19 -7 -39.5t-20.5 -39t-34.5 -34t-49 -24.5z" />
    <glyph glyph-name="Ldot" unicode="&#x13f;" horiz-adv-x="504" 
d="M467 80v-80h-402v650h96v-570h306zM351 417q32 0 49.5 -19t17.5 -47q0 -29 -17.5 -46t-49.5 -17t-49 17t-17 46q0 28 17 47t49 19z" />
    <glyph glyph-name="ldot" unicode="&#x140;" horiz-adv-x="344" 
d="M157 730v-582q0 -37 15.5 -52.5t57.5 -15.5v-84q-6 -1 -12 -1.5t-12 -0.5q-40 0 -67 11.5t-43.5 32.5t-23.5 51.5t-7 68.5v572h92zM270 397q32 0 49.5 -19t17.5 -47q0 -29 -17.5 -46t-49.5 -17t-49 17t-17 46q0 28 17 47t49 19z" />
    <glyph glyph-name="Lslash" unicode="&#x141;" horiz-adv-x="521" 
d="M484 80v-80h-402v267l-56 -22l-26 65l82 32v308h96v-270l114 45l26 -65l-140 -55v-225h306z" />
    <glyph glyph-name="lslash" unicode="&#x142;" horiz-adv-x="278" 
d="M157 730v-310l99 36l17 -69l-116 -42v-197q0 -37 15.5 -52.5t57.5 -15.5v-84q-6 -1 -12 -1.5t-12 -0.5q-40 0 -67 11.5t-43.5 32.5t-23.5 51.5t-7 68.5v154l-46 -16l-17 68l63 23v343h92z" />
    <glyph glyph-name="Nacute" unicode="&#x143;" horiz-adv-x="734" 
d="M164 650l417 -531l-3 170v361h91v-650h-102l-418 533l6 -198v-335h-90v650h99zM418 881l78 -47l-98 -136h-69z" />
    <glyph glyph-name="nacute" unicode="&#x144;" horiz-adv-x="611" 
d="M146 500l6 -79q36 48 84.5 68.5t102.5 20.5q104 0 155.5 -56.5t51.5 -162.5v-291h-93v292q0 66 -25 104t-89 38q-59 0 -102.5 -22t-78.5 -67v-345h-93v500h81zM399 746l73 -47l-103 -136h-64z" />
    <glyph glyph-name="Ncommaaccent" unicode="&#x145;" horiz-adv-x="734" 
d="M164 650l417 -531l-3 170v361h91v-650h-102l-418 533l6 -198v-335h-90v650h99zM285 -177q62 24 62 68q-30 0 -43.5 16.5t-13.5 37.5q0 10 3 20t10 18.5t18.5 14t28.5 5.5q35 0 53 -25.5t18 -62.5q0 -19 -7 -39.5t-20.5 -39t-34.5 -34t-49 -24.5z" />
    <glyph glyph-name="ncommaaccent" unicode="&#x146;" horiz-adv-x="611" 
d="M146 500l6 -79q36 48 84.5 68.5t102.5 20.5q104 0 155.5 -56.5t51.5 -162.5v-291h-93v292q0 66 -25 104t-89 38q-59 0 -102.5 -22t-78.5 -67v-345h-93v500h81zM241 -183q30 14 46 30.5t16 39.5q-30 0 -43.5 16.5t-13.5 37.5q0 10 3 20t10 18.5t18.5 14t28.5 5.5
q35 0 53 -25.5t18 -62.5q0 -19 -7 -39.5t-20.5 -39t-34.5 -34t-49 -24.5z" />
    <glyph glyph-name="Ncaron" unicode="&#x147;" horiz-adv-x="734" 
d="M164 650l417 -531l-3 170v361h91v-650h-102l-418 533l6 -198v-335h-90v650h99zM367 778l132 86l21 -54l-141 -119h-23l-142 119l21 54z" />
    <glyph glyph-name="ncaron" unicode="&#x148;" horiz-adv-x="611" 
d="M146 500l6 -79q36 48 84.5 68.5t102.5 20.5q104 0 155.5 -56.5t51.5 -162.5v-291h-93v292q0 66 -25 104t-89 38q-59 0 -102.5 -22t-78.5 -67v-345h-93v500h81zM341 646l112 77l23 -48l-123 -125h-23l-124 125l23 48z" />
    <glyph glyph-name="napostrophe" unicode="&#x149;" horiz-adv-x="693" 
d="M228 500l6 -79q36 48 84.5 68.5t102.5 20.5q104 0 155.5 -56.5t51.5 -162.5v-291h-93v292q0 66 -25 104t-89 38q-59 0 -102.5 -22t-78.5 -67v-345h-93v500h81zM16 558q30 14 46 30.5t16 39.5q-30 0 -43.5 16.5t-13.5 37.5q0 10 3 20t10 18.5t18.5 14t28.5 5.5
q35 0 53 -25.5t18 -62.5q0 -19 -7 -39.5t-20.5 -39t-34.5 -34t-49 -24.5z" />
    <glyph glyph-name="Omacron" unicode="&#x14c;" horiz-adv-x="780" 
d="M740 325q0 -75 -27 -137t-74.5 -107t-111.5 -69.5t-137 -24.5q-74 0 -137.5 24.5t-111 69.5t-74.5 107t-27 137t27 137t74.5 107t111 69.5t137.5 24.5q73 0 137 -24.5t111.5 -69.5t74.5 -107t27 -137zM136 325q0 -62 20.5 -110t55 -81t80.5 -50.5t98 -17.5t98 17.5
t80.5 50.5t55 81t20.5 110t-20.5 110t-55 81t-80.5 50.5t-98 17.5t-98 -17.5t-80.5 -50.5t-55 -81t-20.5 -110zM553 784v-73h-326v73h326z" />
    <glyph glyph-name="omacron" unicode="&#x14d;" horiz-adv-x="638" 
d="M598 250q0 -60 -22 -108t-59.5 -82t-88.5 -52t-109 -18t-109 18t-88.5 52t-59.5 82t-22 108t22 108t59.5 82t88.5 52t109 18t109 -18t88.5 -52t59.5 -82t22 -108zM131 250q0 -87 50 -137t138 -50t138 50t50 137t-50 137t-138 50t-138 -50t-50 -137zM476 642v-70h-314v70
h314z" />
    <glyph glyph-name="Obreve" unicode="&#x14e;" horiz-adv-x="780" 
d="M740 325q0 -75 -27 -137t-74.5 -107t-111.5 -69.5t-137 -24.5q-74 0 -137.5 24.5t-111 69.5t-74.5 107t-27 137t27 137t74.5 107t111 69.5t137.5 24.5q73 0 137 -24.5t111.5 -69.5t74.5 -107t27 -137zM136 325q0 -62 20.5 -110t55 -81t80.5 -50.5t98 -17.5t98 17.5
t80.5 50.5t55 81t20.5 110t-20.5 110t-55 81t-80.5 50.5t-98 17.5t-98 -17.5t-80.5 -50.5t-55 -81t-20.5 -110zM294 839q14 -29 39.5 -44t56.5 -15q68 0 97 59l60 -27q-17 -53 -58.5 -79t-98.5 -26q-56 0 -98.5 27t-57.5 78z" />
    <glyph glyph-name="obreve" unicode="&#x14f;" horiz-adv-x="638" 
d="M598 250q0 -60 -22 -108t-59.5 -82t-88.5 -52t-109 -18t-109 18t-88.5 52t-59.5 82t-22 108t22 108t59.5 82t88.5 52t109 18t109 -18t88.5 -52t59.5 -82t22 -108zM131 250q0 -87 50 -137t138 -50t138 50t50 137t-50 137t-138 50t-138 -50t-50 -137zM251 679
q5 -23 21.5 -37t46.5 -14t46.5 14t21.5 37l70 -13q-13 -55 -51.5 -82t-86.5 -27t-86.5 27t-51.5 82z" />
    <glyph glyph-name="Ohungarumlaut" unicode="&#x150;" horiz-adv-x="780" 
d="M740 325q0 -75 -27 -137t-74.5 -107t-111.5 -69.5t-137 -24.5q-74 0 -137.5 24.5t-111 69.5t-74.5 107t-27 137t27 137t74.5 107t111 69.5t137.5 24.5q73 0 137 -24.5t111.5 -69.5t74.5 -107t27 -137zM136 325q0 -62 20.5 -110t55 -81t80.5 -50.5t98 -17.5t98 17.5
t80.5 50.5t55 81t20.5 110t-20.5 110t-55 81t-80.5 50.5t-98 17.5t-98 -17.5t-80.5 -50.5t-55 -81t-20.5 -110zM345 893l82 -30l-69 -159h-64zM483 883l76 -47l-93 -132h-67z" />
    <glyph glyph-name="ohungarumlaut" unicode="&#x151;" horiz-adv-x="638" 
d="M598 250q0 -60 -22 -108t-59.5 -82t-88.5 -52t-109 -18t-109 18t-88.5 52t-59.5 82t-22 108t22 108t59.5 82t88.5 52t109 18t109 -18t88.5 -52t59.5 -82t22 -108zM131 250q0 -87 50 -137t138 -50t138 50t50 137t-50 137t-138 50t-138 -50t-50 -137zM279 746l82 -30
l-69 -153h-64zM417 736l76 -47l-93 -126h-67z" />
    <glyph glyph-name="OE" unicode="&#x152;" horiz-adv-x="1070" 
d="M1013 650v-79h-319v-194h286v-78h-286v-220h333v-79h-424v89q-42 -48 -100 -75t-133 -27q-74 0 -134.5 24.5t-104 69.5t-67.5 107t-24 137t24 137t67.5 107t104 69.5t134.5 24.5q72 0 130.5 -26.5t102.5 -74.5v88h410zM136 325q0 -62 17 -110t48 -81t74 -50.5t95 -17.5
t95 17.5t74 50.5t48 81t17 110t-17 110t-48 81t-74 50.5t-95 17.5t-95 -17.5t-74 -50.5t-48 -81t-17 -110z" />
    <glyph glyph-name="oe" unicode="&#x153;" horiz-adv-x="1008" 
d="M569 227q3 -40 17.5 -70t38.5 -49.5t56 -29.5t68 -10q28 0 50 1.5t41.5 6t39 11.5t42.5 19l27 -76q-24 -12 -47 -20t-47.5 -12.5t-51.5 -6t-60 -1.5q-155 0 -221 104q-36 -52 -91 -78t-122 -26q-58 0 -107.5 18t-85.5 52t-56 82t-20 108t20 108t56 82t85.5 52t107.5 18
q68 0 124 -24.5t90 -81.5q32 57 88 81.5t125 24.5q60 0 104 -15.5t73 -43t43 -65.5t14 -83q0 -21 -2 -38.5t-7 -37.5h-392zM131 250q0 -87 45 -137t133 -50t133 50t45 137t-45 137t-133 50t-133 -50t-45 -137zM878 299q-2 72 -37.5 104t-114.5 32q-30 0 -57.5 -8.5
t-49 -25.5t-35.5 -42.5t-17 -59.5h311z" />
    <glyph glyph-name="Racute" unicode="&#x154;" horiz-adv-x="636" 
d="M330 650q49 0 90.5 -12.5t71.5 -36.5t47 -58t17 -77q0 -58 -36 -104.5t-107 -65.5l188 -296h-111l-174 279h-156v-279h-95v650h265zM160 356h156q64 0 104.5 28t40.5 82t-39 80.5t-107 26.5h-155v-217zM334 881l78 -47l-98 -136h-69z" />
    <glyph glyph-name="racute" unicode="&#x155;" horiz-adv-x="491" 
d="M146 500l6 -79q36 48 78 68.5t96 20.5q52 0 87 -15.5t67 -56.5l-63 -57q-21 26 -47 38.5t-54 12.5q-56 0 -91 -22t-67 -67v-343h-93v500h81zM358 746l73 -47l-103 -136h-64z" />
    <glyph glyph-name="Rcommaaccent" unicode="&#x156;" horiz-adv-x="636" 
d="M330 650q49 0 90.5 -12.5t71.5 -36.5t47 -58t17 -77q0 -58 -36 -104.5t-107 -65.5l188 -296h-111l-174 279h-156v-279h-95v650h265zM160 356h156q64 0 104.5 28t40.5 82t-39 80.5t-107 26.5h-155v-217zM249 -177q62 24 62 68q-30 0 -43.5 16.5t-13.5 37.5q0 10 3 20
t10 18.5t18.5 14t28.5 5.5q35 0 53 -25.5t18 -62.5q0 -19 -7 -39.5t-20.5 -39t-34.5 -34t-49 -24.5z" />
    <glyph glyph-name="rcommaaccent" unicode="&#x157;" horiz-adv-x="491" 
d="M146 500l6 -79q36 48 78 68.5t96 20.5q52 0 87 -15.5t67 -56.5l-63 -57q-21 26 -47 38.5t-54 12.5q-56 0 -91 -22t-67 -67v-343h-93v500h81zM52 -227q30 14 46 30.5t16 39.5q-30 0 -43.5 16.5t-13.5 37.5q0 10 3 20t10 18.5t18.5 14t28.5 5.5q35 0 53 -25.5t18 -62.5
q0 -19 -7 -39.5t-20.5 -39t-34.5 -34t-49 -24.5z" />
    <glyph glyph-name="Rcaron" unicode="&#x158;" horiz-adv-x="636" 
d="M330 650q49 0 90.5 -12.5t71.5 -36.5t47 -58t17 -77q0 -58 -36 -104.5t-107 -65.5l188 -296h-111l-174 279h-156v-279h-95v650h265zM160 356h156q64 0 104.5 28t40.5 82t-39 80.5t-107 26.5h-155v-217zM289 778l132 86l21 -54l-141 -119h-23l-142 119l21 54z" />
    <glyph glyph-name="rcaron" unicode="&#x159;" horiz-adv-x="491" 
d="M146 500l6 -79q36 48 78 68.5t96 20.5q52 0 87 -15.5t67 -56.5l-63 -57q-21 26 -47 38.5t-54 12.5q-56 0 -91 -22t-67 -67v-343h-93v500h81zM295 646l112 77l23 -48l-123 -125h-23l-124 125l23 48z" />
    <glyph glyph-name="Sacute" unicode="&#x15a;" horiz-adv-x="574" 
d="M453 531q-41 29 -81 41.5t-91 12.5q-38 0 -62 -8.5t-38 -21.5t-19.5 -30t-5.5 -33q0 -36 23.5 -60t79.5 -35l93 -19q82 -17 130.5 -66t48.5 -132q0 -42 -17.5 -77t-50.5 -61t-80.5 -40.5t-107.5 -14.5q-36 0 -65.5 3t-56.5 10t-53.5 18t-55.5 27l32 87q56 -35 101 -48
t96 -13q83 0 124.5 31t41.5 77q0 52 -27.5 78.5t-92.5 38.5l-102 19q-72 14 -111.5 62.5t-39.5 110.5q0 39 14 71t41.5 55t67.5 36t92 13q64 0 113 -12t99 -45zM345 886l78 -47l-98 -136h-69z" />
    <glyph glyph-name="sacute" unicode="&#x15b;" horiz-adv-x="502" 
d="M406 407q-39 18 -74.5 24.5t-76.5 6.5q-66 0 -95.5 -18.5t-29.5 -47.5q0 -37 33.5 -50.5t99.5 -20.5q94 -10 145.5 -45.5t51.5 -112.5q0 -78 -64 -115.5t-174 -37.5q-55 0 -96.5 7.5t-85.5 26.5l23 76q74 -35 155 -35q155 0 155 79q0 19 -7 32t-23 21.5t-42 14t-65 9.5
q-98 10 -146 43t-48 101q0 30 13 56.5t39.5 46t67 31t94.5 11.5q27 0 49.5 -1.5t43.5 -5t42 -9.5t44 -15zM319 746l73 -47l-103 -136h-64z" />
    <glyph glyph-name="Scircumflex" unicode="&#x15c;" horiz-adv-x="574" 
d="M453 531q-41 29 -81 41.5t-91 12.5q-38 0 -62 -8.5t-38 -21.5t-19.5 -30t-5.5 -33q0 -36 23.5 -60t79.5 -35l93 -19q82 -17 130.5 -66t48.5 -132q0 -42 -17.5 -77t-50.5 -61t-80.5 -40.5t-107.5 -14.5q-36 0 -65.5 3t-56.5 10t-53.5 18t-55.5 27l32 87q56 -35 101 -48
t96 -13q83 0 124.5 31t41.5 77q0 52 -27.5 78.5t-92.5 38.5l-102 19q-72 14 -111.5 62.5t-39.5 110.5q0 39 14 71t41.5 55t67.5 36t92 13q64 0 113 -12t99 -45zM293 777l-132 -86l-21 54l141 119h23l142 -119l-21 -54z" />
    <glyph glyph-name="scircumflex" unicode="&#x15d;" horiz-adv-x="502" 
d="M406 407q-39 18 -74.5 24.5t-76.5 6.5q-66 0 -95.5 -18.5t-29.5 -47.5q0 -37 33.5 -50.5t99.5 -20.5q94 -10 145.5 -45.5t51.5 -112.5q0 -78 -64 -115.5t-174 -37.5q-55 0 -96.5 7.5t-85.5 26.5l23 76q74 -35 155 -35q155 0 155 79q0 19 -7 32t-23 21.5t-42 14t-65 9.5
q-98 10 -146 43t-48 101q0 30 13 56.5t39.5 46t67 31t94.5 11.5q27 0 49.5 -1.5t43.5 -5t42 -9.5t44 -15zM254 622l-112 -77l-23 48l123 125h23l124 -125l-23 -48z" />
    <glyph glyph-name="Scedilla" unicode="&#x15e;" horiz-adv-x="574" 
d="M453 531q-41 29 -81 41.5t-91 12.5q-38 0 -62 -8.5t-38 -21.5t-19.5 -30t-5.5 -33q0 -36 23.5 -60t79.5 -35l93 -19q82 -17 130.5 -66t48.5 -132q0 -39 -15 -72.5t-44 -59t-71 -41t-95 -19.5l-4 -36q35 0 54 -18.5t19 -51.5q0 -28 -14.5 -49.5t-37 -37t-50 -25.5
t-52.5 -14l-13 61q41 7 68 21.5t27 41.5t-36 27h-33l3 81q-28 1 -52 5t-47 11t-46 17t-48 24l32 87q56 -35 101 -48t96 -13q83 0 124.5 31t41.5 77q0 52 -27.5 78.5t-92.5 38.5l-102 19q-72 14 -111.5 62.5t-39.5 110.5q0 39 14 71t41.5 55t67.5 36t92 13q64 0 113 -12
t99 -45z" />
    <glyph glyph-name="scedilla" unicode="&#x15f;" horiz-adv-x="502" 
d="M406 407q-39 18 -74.5 24.5t-76.5 6.5q-66 0 -95.5 -18.5t-29.5 -47.5q0 -20 10 -32t27.5 -19.5t42 -11.5t53.5 -7q47 -5 84 -15.5t62 -29t38 -46.5t13 -68q0 -73 -56.5 -110t-153.5 -42l-3 -35q32 0 50.5 -15.5t18.5 -44.5q0 -16 -6.5 -34.5t-23 -36t-44 -33
t-69.5 -24.5l-12 64q38 3 62.5 16t24.5 39q0 25 -30 25h-36v79q-40 2 -73.5 10t-68.5 23l23 76q74 -35 155 -35q155 0 155 79q0 20 -7 33t-23 21t-42 13t-65 9q-98 10 -146 42.5t-48 102.5q0 30 13 56.5t39.5 46t67 31t94.5 11.5q27 0 49.5 -1.5t43.5 -5t42 -9.5t44 -15z
" />
    <glyph glyph-name="Scaron" unicode="&#x160;" horiz-adv-x="574" 
d="M453 531q-41 29 -81 41.5t-91 12.5q-38 0 -62 -8.5t-38 -21.5t-19.5 -30t-5.5 -33q0 -36 23.5 -60t79.5 -35l93 -19q82 -17 130.5 -66t48.5 -132q0 -42 -17.5 -77t-50.5 -61t-80.5 -40.5t-107.5 -14.5q-36 0 -65.5 3t-56.5 10t-53.5 18t-55.5 27l32 87q56 -35 101 -48
t96 -13q83 0 124.5 31t41.5 77q0 52 -27.5 78.5t-92.5 38.5l-102 19q-72 14 -111.5 62.5t-39.5 110.5q0 39 14 71t41.5 55t67.5 36t92 13q64 0 113 -12t99 -45zM285 783l132 86l21 -54l-141 -119h-23l-142 119l21 54z" />
    <glyph glyph-name="scaron" unicode="&#x161;" horiz-adv-x="502" 
d="M406 407q-39 18 -74.5 24.5t-76.5 6.5q-66 0 -95.5 -18.5t-29.5 -47.5q0 -37 33.5 -50.5t99.5 -20.5q94 -10 145.5 -45.5t51.5 -112.5q0 -78 -64 -115.5t-174 -37.5q-55 0 -96.5 7.5t-85.5 26.5l23 76q74 -35 155 -35q155 0 155 79q0 19 -7 32t-23 21.5t-42 14t-65 9.5
q-98 10 -146 43t-48 101q0 30 13 56.5t39.5 46t67 31t94.5 11.5q27 0 49.5 -1.5t43.5 -5t42 -9.5t44 -15zM251 646l112 77l23 -48l-123 -125h-23l-124 125l23 48z" />
    <glyph glyph-name="Tcommaaccent" unicode="&#x162;" horiz-adv-x="544" 
d="M30 650h484v-76h-194v-574h-96v574h-194v76zM209 -223q62 24 62 68q-30 0 -43.5 16.5t-13.5 37.5q0 10 3 20t10 18.5t18.5 14t28.5 5.5q35 0 53 -25.5t18 -62.5q0 -19 -7 -39.5t-20.5 -39t-34.5 -34t-49 -24.5z" />
    <glyph glyph-name="tcommaaccent" unicode="&#x163;" horiz-adv-x="434" 
d="M15 469l68 43l73 113l31 -5v-120h199l-3 -77l-196 9v-263q0 -57 26 -81t67 -24q33 0 59.5 9t54.5 26l30 -67q-31 -22 -67.5 -32t-86.5 -10q-86 0 -131.5 45t-45.5 133v255l-78 11v35zM198 -226q30 14 46 30.5t16 39.5q-30 0 -43.5 16.5t-13.5 37.5q0 10 3 20t10 18.5
t18.5 14t28.5 5.5q35 0 53 -25.5t18 -62.5q0 -19 -7 -39.5t-20.5 -39t-34.5 -34t-49 -24.5z" />
    <glyph glyph-name="Tcaron" unicode="&#x164;" horiz-adv-x="544" 
d="M30 650h484v-76h-194v-574h-96v574h-194v76zM272 778l132 86l21 -54l-141 -119h-23l-142 119l21 54z" />
    <glyph glyph-name="tcaron" unicode="&#x165;" horiz-adv-x="434" 
d="M15 469l68 43l73 113l31 -5v-120h199l-3 -77l-196 9v-263q0 -57 26 -81t67 -24q33 0 59.5 9t54.5 26l30 -67q-31 -22 -67.5 -32t-86.5 -10q-86 0 -131.5 45t-45.5 133v255l-78 11v35zM270 592q30 14 46 30.5t16 39.5q-30 0 -43.5 16.5t-13.5 37.5q0 10 3 20t10 18.5
t18.5 14t28.5 5.5q35 0 53 -25.5t18 -62.5q0 -19 -7 -39.5t-20.5 -39t-34.5 -34t-49 -24.5z" />
    <glyph glyph-name="Utilde" unicode="&#x168;" horiz-adv-x="680" 
d="M160 650v-379q0 -104 47.5 -156t132.5 -52t132.5 52t47.5 156v379h95v-372q0 -75 -19.5 -129.5t-55 -90.5t-86.5 -53.5t-114 -17.5t-114 17.5t-86.5 53.5t-55 90.5t-19.5 129.5v372h95zM159 765q22 22 52.5 33.5t64.5 11.5q24 0 41 -6t32 -12.5t29.5 -12.5t34.5 -6
q21 0 36 6t32 23l41 -48q-43 -55 -108 -55q-23 0 -41 6t-35 13.5t-33.5 13.5t-34.5 6q-49 0 -83 -39z" />
    <glyph glyph-name="utilde" unicode="&#x169;" horiz-adv-x="604" 
d="M158 500v-292q0 -65 23.5 -103.5t87.5 -38.5q59 0 100.5 22t76.5 67v345h93v-500h-81l-6 79q-36 -48 -82.5 -68.5t-100.5 -20.5q-104 0 -154 56.5t-50 162.5v291h93zM124 625q43 48 114 48q25 0 41.5 -6t30.5 -13.5t28 -13.5t34 -6q21 0 36 7t32 24l41 -46
q-23 -29 -48.5 -42.5t-59.5 -13.5q-23 0 -40.5 6.5t-34 14t-32.5 14t-34 6.5q-26 0 -45 -9.5t-35 -29.5z" />
    <glyph glyph-name="Umacron" unicode="&#x16a;" horiz-adv-x="680" 
d="M160 650v-379q0 -104 47.5 -156t132.5 -52t132.5 52t47.5 156v379h95v-372q0 -75 -19.5 -129.5t-55 -90.5t-86.5 -53.5t-114 -17.5t-114 17.5t-86.5 53.5t-55 90.5t-19.5 129.5v372h95zM503 784v-73h-326v73h326z" />
    <glyph glyph-name="umacron" unicode="&#x16b;" horiz-adv-x="604" 
d="M158 500v-292q0 -65 23.5 -103.5t87.5 -38.5q59 0 100.5 22t76.5 67v345h93v-500h-81l-6 79q-36 -48 -82.5 -68.5t-100.5 -20.5q-104 0 -154 56.5t-50 162.5v291h93zM459 642v-70h-314v70h314z" />
    <glyph glyph-name="Ubreve" unicode="&#x16c;" horiz-adv-x="680" 
d="M160 650v-379q0 -104 47.5 -156t132.5 -52t132.5 52t47.5 156v379h95v-372q0 -75 -19.5 -129.5t-55 -90.5t-86.5 -53.5t-114 -17.5t-114 17.5t-86.5 53.5t-55 90.5t-19.5 129.5v372h95zM244 826q14 -29 39.5 -44t56.5 -15q68 0 97 59l60 -27q-17 -53 -58.5 -79t-98.5 -26
q-56 0 -98.5 27t-57.5 78z" />
    <glyph glyph-name="ubreve" unicode="&#x16d;" horiz-adv-x="604" 
d="M158 500v-292q0 -65 23.5 -103.5t87.5 -38.5q59 0 100.5 22t76.5 67v345h93v-500h-81l-6 79q-36 -48 -82.5 -68.5t-100.5 -20.5q-104 0 -154 56.5t-50 162.5v291h93zM234 665q5 -23 21.5 -37t46.5 -14t46.5 14t21.5 37l70 -13q-13 -55 -51.5 -82t-86.5 -27t-86.5 27
t-51.5 82z" />
    <glyph glyph-name="Uring" unicode="&#x16e;" horiz-adv-x="680" 
d="M160 650v-379q0 -104 47.5 -156t132.5 -52t132.5 52t47.5 156v379h95v-372q0 -75 -19.5 -129.5t-55 -90.5t-86.5 -53.5t-114 -17.5t-114 17.5t-86.5 53.5t-55 90.5t-19.5 129.5v372h95zM340 670q-52 0 -84.5 31.5t-32.5 80.5q0 23 9 43.5t24.5 35.5t37 23.5t46.5 8.5
t46.5 -8.5t37 -23.5t24.5 -35.5t9 -43.5q0 -50 -33 -81t-84 -31zM396 782q0 24 -16 39.5t-40 15.5t-40.5 -15.5t-16.5 -39.5t16.5 -40t40.5 -16t40 16t16 40z" />
    <glyph glyph-name="uring" unicode="&#x16f;" horiz-adv-x="604" 
d="M158 500v-292q0 -65 23.5 -103.5t87.5 -38.5q59 0 100.5 22t76.5 67v345h93v-500h-81l-6 79q-36 -48 -82.5 -68.5t-100.5 -20.5q-104 0 -154 56.5t-50 162.5v291h93zM302 543q-21 0 -40.5 6.5t-35 19.5t-24.5 32t-9 45q0 23 8.5 42t23.5 32.5t35 21t42 7.5q20 0 39.5 -7
t35 -20t25 -32t9.5 -44q0 -26 -9 -45.5t-24 -32t-35 -19t-41 -6.5zM302 597q22 0 37 13t15 36q0 21 -14.5 34.5t-37.5 13.5q-21 0 -36.5 -13.5t-15.5 -34.5t14.5 -35t37.5 -14z" />
    <glyph glyph-name="Uhungarumlaut" unicode="&#x170;" horiz-adv-x="680" 
d="M160 650v-379q0 -104 47.5 -156t132.5 -52t132.5 52t47.5 156v379h95v-372q0 -75 -19.5 -129.5t-55 -90.5t-86.5 -53.5t-114 -17.5t-114 17.5t-86.5 53.5t-55 90.5t-19.5 129.5v372h95zM294 881l82 -30l-69 -159h-64zM432 871l76 -47l-93 -132h-67z" />
    <glyph glyph-name="uhungarumlaut" unicode="&#x171;" horiz-adv-x="604" 
d="M158 500v-292q0 -65 23.5 -103.5t87.5 -38.5q59 0 100.5 22t76.5 67v345h93v-500h-81l-6 79q-36 -48 -82.5 -68.5t-100.5 -20.5q-104 0 -154 56.5t-50 162.5v291h93zM264 741l82 -30l-69 -153h-64zM402 731l76 -47l-93 -126h-67z" />
    <glyph glyph-name="Uogonek" unicode="&#x172;" horiz-adv-x="680" 
d="M160 650v-379q0 -104 47.5 -156t132.5 -52t132.5 52t47.5 156v379h95v-372q0 -129 -55.5 -198.5t-152.5 -86.5q-31 -16 -41 -33.5t-10 -37.5q0 -17 10.5 -30.5t38.5 -13.5q7 0 14.5 1t16.5 4l-16 -65q-10 -2 -19.5 -3t-17.5 -1q-48 0 -76 24.5t-28 62.5q0 22 11 45.5
t34 40.5q-60 2 -107.5 20.5t-81.5 54.5t-52 90t-18 126v372h95z" />
    <glyph glyph-name="uogonek" unicode="&#x173;" horiz-adv-x="604" 
d="M158 500v-292q0 -65 23.5 -103.5t87.5 -38.5q59 0 100.5 22t76.5 67v345h93v-500q-30 -15 -39.5 -31.5t-9.5 -35.5q0 -16 9 -26.5t35 -10.5q14 0 29 4l-17 -65q-9 -2 -17.5 -3t-16.5 -1q-51 0 -72.5 24t-21.5 59q0 23 12.5 47.5t39.5 38.5h-12l-6 79q-36 -48 -82.5 -68.5
t-100.5 -20.5q-104 0 -154 56.5t-50 162.5v291h93z" />
    <glyph glyph-name="Wcircumflex" unicode="&#x174;" horiz-adv-x="1009" 
d="M231 0l-206 650h103l169 -555h4l162 555h85l171 -555h4l165 555h96l-205 -650h-128l-144 483h-4l-145 -483h-127zM504 775l-132 -86l-21 54l141 119h23l142 -119l-21 -54z" />
    <glyph glyph-name="wcircumflex" unicode="&#x175;" horiz-adv-x="862" 
d="M25 500h96l134 -413h8l133 413h76l137 -413h8l127 413h93l-168 -500h-121l-112 344h-6l-113 -344h-124zM433 622l-112 -77l-23 48l123 125h23l124 -125l-23 -48z" />
    <glyph glyph-name="Ycircumflex" unicode="&#x176;" horiz-adv-x="646" 
d="M131 650l192 -313h4l190 313h104l-250 -401v-249h-94v247l-252 403h106zM323 771l-132 -86l-21 54l141 119h23l142 -119l-21 -54z" />
    <glyph glyph-name="ycircumflex" unicode="&#x177;" horiz-adv-x="599" 
d="M128 500l193 -402h4l149 402h100l-246 -596q-20 -48 -63 -75.5t-94 -27.5q-19 0 -33 3t-33 10l14 72q22 -5 39 -5q35 0 60.5 14.5t42.5 55.5l18 45l-254 504h103zM309 622l-112 -77l-23 48l123 125h23l124 -125l-23 -48z" />
    <glyph glyph-name="Ydieresis" unicode="&#x178;" horiz-adv-x="646" 
d="M131 650l192 -313h4l190 313h104l-250 -401v-249h-94v247l-252 403h106zM213 828q31 0 47.5 -17t16.5 -44q0 -26 -16.5 -43t-47.5 -17q-29 0 -45.5 17t-16.5 43q0 27 16.5 44t45.5 17zM432 828q29 0 46 -17t17 -44q0 -26 -17 -43t-46 -17t-46 17t-17 43q0 27 17 44t46 17
z" />
    <glyph glyph-name="Zacute" unicode="&#x179;" horiz-adv-x="617" 
d="M573 650v-68l-417 -503h425v-79h-544v65l420 508h-393v77h509zM364 881l78 -47l-98 -136h-69z" />
    <glyph glyph-name="zacute" unicode="&#x17a;" horiz-adv-x="543" 
d="M495 500v-55l-335 -373h337v-72h-455v56l332 372h-321v72h442zM305 746l73 -47l-103 -136h-64z" />
    <glyph glyph-name="Zdotaccent" unicode="&#x17b;" horiz-adv-x="617" 
d="M573 650v-68l-417 -503h425v-79h-544v65l420 508h-393v77h509zM313 830q32 0 49.5 -19t17.5 -47q0 -29 -17.5 -46t-49.5 -17t-49 17t-17 46q0 28 17 47t49 19z" />
    <glyph glyph-name="zdotaccent" unicode="&#x17c;" horiz-adv-x="543" 
d="M495 500v-55l-335 -373h337v-72h-455v56l332 372h-321v72h442zM266 680q32 0 49.5 -19t17.5 -47q0 -29 -17.5 -46t-49.5 -17t-49 17t-17 46q0 28 17 47t49 19z" />
    <glyph glyph-name="Zcaron" unicode="&#x17d;" horiz-adv-x="617" 
d="M573 650v-68l-417 -503h425v-79h-544v65l420 508h-393v77h509zM316 778l132 86l21 -54l-141 -119h-23l-142 119l21 54z" />
    <glyph glyph-name="zcaron" unicode="&#x17e;" horiz-adv-x="543" 
d="M495 500v-55l-335 -373h337v-72h-455v56l332 372h-321v72h442zM263 646l112 77l23 -48l-123 -125h-23l-124 125l23 48z" />
    <glyph glyph-name="longs" unicode="&#x17f;" horiz-adv-x="260" 
d="M65 533q0 43 13.5 79t39 62.5t61.5 41t81 14.5q50 0 87 -10t74 -33l-44 -73q-51 36 -109 36q-57 0 -83.5 -30.5t-26.5 -83.5v-536h-93v533z" />
    <glyph glyph-name="florin" unicode="&#x192;" horiz-adv-x="367" 
d="M110 500v33q0 43 13.5 79t39 62.5t61.5 41t81 14.5q50 0 87 -10t74 -33l-39 -71q-49 34 -110 34q-62 0 -87.5 -31t-25.5 -83v-36h152l-4 -77l-148 5v-397q0 -101 -52 -156.5t-149 -57.5l-7 79q59 4 86.5 32t27.5 86v409l-87 12v65h87z" />
    <glyph glyph-name="uni0200" unicode="&#x200;" horiz-adv-x="707" 
d="M406 650l278 -650h-99l-85 197h-299l-81 -197h-98l279 650h105zM232 275h238l-114 283h-9zM420 698h-64l-69 159l82 30zM315 698h-67l-93 132l76 47z" />
    <glyph glyph-name="uni0201" unicode="&#x201;" horiz-adv-x="602" 
d="M79 466q56 23 103.5 33.5t109.5 10.5q111 0 163.5 -41t52.5 -133v-209q0 -36 12 -48.5t50 -12.5v-66q-17 -5 -31.5 -7.5t-34.5 -2.5q-31 0 -49 22t-21 60q-69 -82 -206 -82q-88 0 -133.5 41t-45.5 112q0 34 10.5 62t36.5 57q34 10 68.5 18t73.5 13t83 8t97 4v28
q0 52 -28.5 76t-101.5 24q-94 0 -189 -41zM418 238q-87 -2 -146.5 -9.5t-108.5 -20.5q-20 -24 -20 -60q0 -41 25.5 -61.5t72.5 -20.5q50 0 92.5 15t84.5 51v106zM380 563h-64l-69 153l82 30zM275 563h-67l-93 126l76 47z" />
    <glyph glyph-name="uni0202" unicode="&#x202;" horiz-adv-x="707" 
d="M406 650l278 -650h-99l-85 197h-299l-81 -197h-98l279 650h105zM232 275h238l-114 283h-9zM353 768l-132 -86l-21 54l141 119h23l142 -119l-21 -54z" />
    <glyph glyph-name="uni0203" unicode="&#x203;" horiz-adv-x="602" 
d="M79 466q56 23 103.5 33.5t109.5 10.5q111 0 163.5 -41t52.5 -133v-209q0 -36 12 -48.5t50 -12.5v-66q-17 -5 -31.5 -7.5t-34.5 -2.5q-31 0 -49 22t-21 60q-69 -82 -206 -82q-88 0 -133.5 41t-45.5 112q0 34 10.5 62t36.5 57q34 10 68.5 18t73.5 13t83 8t97 4v28
q0 52 -28.5 76t-101.5 24q-94 0 -189 -41zM418 238q-87 -2 -146.5 -9.5t-108.5 -20.5q-20 -24 -20 -60q0 -41 25.5 -61.5t72.5 -20.5q50 0 92.5 15t84.5 51v106zM294 622l-112 -77l-23 48l123 125h23l124 -125l-23 -48z" />
    <glyph glyph-name="uni0204" unicode="&#x204;" horiz-adv-x="541" 
d="M65 650h419v-79h-323v-194h290v-78h-290v-220h337v-79h-433v650zM375 698h-64l-69 159l82 30zM270 698h-67l-93 132l76 47z" />
    <glyph glyph-name="uni0205" unicode="&#x205;" horiz-adv-x="587" 
d="M136 227q3 -41 19 -71.5t42 -50t59.5 -29t69.5 -9.5q53 0 93.5 8.5t79.5 30.5l27 -76q-25 -12 -47.5 -19.5t-46.5 -12t-51.5 -6.5t-60.5 -2q-68 0 -120 18t-87.5 52t-54 82t-18.5 107q0 58 20.5 106.5t57.5 82.5t86.5 53t108.5 19q60 0 104 -15.5t73 -43t43 -65.5t14 -83
q0 -21 -2 -38.5t-7 -37.5h-402zM457 299q-1 74 -37 105t-117 31q-30 0 -59.5 -8.5t-52.5 -25.5t-38.5 -42.5t-18.5 -59.5h323zM392 563h-64l-69 153l82 30zM287 563h-67l-93 126l76 47z" />
    <glyph glyph-name="uni0206" unicode="&#x206;" horiz-adv-x="541" 
d="M65 650h419v-79h-323v-194h290v-78h-290v-220h337v-79h-433v650zM275 782l-132 -86l-21 54l141 119h23l142 -119l-21 -54z" />
    <glyph glyph-name="uni0207" unicode="&#x207;" horiz-adv-x="587" 
d="M136 227q3 -41 19 -71.5t42 -50t59.5 -29t69.5 -9.5q53 0 93.5 8.5t79.5 30.5l27 -76q-25 -12 -47.5 -19.5t-46.5 -12t-51.5 -6.5t-60.5 -2q-68 0 -120 18t-87.5 52t-54 82t-18.5 107q0 58 20.5 106.5t57.5 82.5t86.5 53t108.5 19q60 0 104 -15.5t73 -43t43 -65.5t14 -83
q0 -21 -2 -38.5t-7 -37.5h-402zM457 299q-1 74 -37 105t-117 31q-30 0 -59.5 -8.5t-52.5 -25.5t-38.5 -42.5t-18.5 -59.5h323zM307 622l-112 -77l-23 48l123 125h23l124 -125l-23 -48z" />
    <glyph glyph-name="uni0208" unicode="&#x208;" horiz-adv-x="225" 
d="M160 650v-650h-95v650h95zM206 698h-64l-69 159l82 30zM101 698h-67l-93 132l76 47z" />
    <glyph glyph-name="uni0209" unicode="&#x209;" horiz-adv-x="223" 
d="M158 500v-500h-93v500h93zM198 563h-64l-69 153l82 30zM93 563h-67l-93 126l76 47z" />
    <glyph glyph-name="uni020A" unicode="&#x20a;" horiz-adv-x="225" 
d="M160 650v-650h-95v650h95zM113 768l-132 -86l-21 54l141 119h23l142 -119l-21 -54z" />
    <glyph glyph-name="uni020B" unicode="&#x20b;" horiz-adv-x="223" 
d="M158 500v-500h-93v500h93zM112 622l-112 -77l-23 48l123 125h23l124 -125l-23 -48z" />
    <glyph glyph-name="uni020C" unicode="&#x20c;" horiz-adv-x="780" 
d="M740 325q0 -75 -27 -137t-74.5 -107t-111.5 -69.5t-137 -24.5q-74 0 -137.5 24.5t-111 69.5t-74.5 107t-27 137t27 137t74.5 107t111 69.5t137.5 24.5q73 0 137 -24.5t111.5 -69.5t74.5 -107t27 -137zM136 325q0 -62 20.5 -110t55 -81t80.5 -50.5t98 -17.5t98 17.5
t80.5 50.5t55 81t20.5 110t-20.5 110t-55 81t-80.5 50.5t-98 17.5t-98 -17.5t-80.5 -50.5t-55 -81t-20.5 -110zM467 708h-64l-69 159l82 30zM362 708h-67l-93 132l76 47z" />
    <glyph glyph-name="uni020D" unicode="&#x20d;" horiz-adv-x="638" 
d="M598 250q0 -60 -22 -108t-59.5 -82t-88.5 -52t-109 -18t-109 18t-88.5 52t-59.5 82t-22 108t22 108t59.5 82t88.5 52t109 18t109 -18t88.5 -52t59.5 -82t22 -108zM131 250q0 -87 50 -137t138 -50t138 50t50 137t-50 137t-138 50t-138 -50t-50 -137zM402 563h-64l-69 153
l82 30zM297 563h-67l-93 126l76 47z" />
    <glyph glyph-name="uni020E" unicode="&#x20e;" horiz-adv-x="780" 
d="M740 325q0 -75 -27 -137t-74.5 -107t-111.5 -69.5t-137 -24.5q-74 0 -137.5 24.5t-111 69.5t-74.5 107t-27 137t27 137t74.5 107t111 69.5t137.5 24.5q73 0 137 -24.5t111.5 -69.5t74.5 -107t27 -137zM136 325q0 -62 20.5 -110t55 -81t80.5 -50.5t98 -17.5t98 17.5
t80.5 50.5t55 81t20.5 110t-20.5 110t-55 81t-80.5 50.5t-98 17.5t-98 -17.5t-80.5 -50.5t-55 -81t-20.5 -110zM390 781l-132 -86l-21 54l141 119h23l142 -119l-21 -54z" />
    <glyph glyph-name="uni020F" unicode="&#x20f;" horiz-adv-x="638" 
d="M598 250q0 -60 -22 -108t-59.5 -82t-88.5 -52t-109 -18t-109 18t-88.5 52t-59.5 82t-22 108t22 108t59.5 82t88.5 52t109 18t109 -18t88.5 -52t59.5 -82t22 -108zM131 250q0 -87 50 -137t138 -50t138 50t50 137t-50 137t-138 50t-138 -50t-50 -137zM319 622l-112 -77
l-23 48l123 125h23l124 -125l-23 -48z" />
    <glyph glyph-name="uni0210" unicode="&#x210;" horiz-adv-x="636" 
d="M330 650q49 0 90.5 -12.5t71.5 -36.5t47 -58t17 -77q0 -58 -36 -104.5t-107 -65.5l188 -296h-111l-174 279h-156v-279h-95v650h265zM160 356h156q64 0 104.5 28t40.5 82t-39 80.5t-107 26.5h-155v-217zM376 698h-64l-69 159l82 30zM271 698h-67l-93 132l76 47z" />
    <glyph glyph-name="uni0211" unicode="&#x211;" horiz-adv-x="491" 
d="M146 500l6 -79q36 48 78 68.5t96 20.5q52 0 87 -15.5t67 -56.5l-63 -57q-21 26 -47 38.5t-54 12.5q-56 0 -91 -22t-67 -67v-343h-93v500h81zM385 563h-64l-69 153l82 30zM280 563h-67l-93 126l76 47z" />
    <glyph glyph-name="uni0212" unicode="&#x212;" horiz-adv-x="636" 
d="M330 650q49 0 90.5 -12.5t71.5 -36.5t47 -58t17 -77q0 -58 -36 -104.5t-107 -65.5l188 -296h-111l-174 279h-156v-279h-95v650h265zM160 356h156q64 0 104.5 28t40.5 82t-39 80.5t-107 26.5h-155v-217zM297 780l-132 -86l-21 54l141 119h23l142 -119l-21 -54z" />
    <glyph glyph-name="uni0213" unicode="&#x213;" horiz-adv-x="491" 
d="M146 500l6 -79q36 48 78 68.5t96 20.5q52 0 87 -15.5t67 -56.5l-63 -57q-21 26 -47 38.5t-54 12.5q-56 0 -91 -22t-67 -67v-343h-93v500h81zM303 622l-112 -77l-23 48l123 125h23l124 -125l-23 -48z" />
    <glyph glyph-name="uni0214" unicode="&#x214;" horiz-adv-x="680" 
d="M160 650v-379q0 -104 47.5 -156t132.5 -52t132.5 52t47.5 156v379h95v-372q0 -75 -19.5 -129.5t-55 -90.5t-86.5 -53.5t-114 -17.5t-114 17.5t-86.5 53.5t-55 90.5t-19.5 129.5v372h95zM437 687h-64l-69 159l82 30zM332 687h-67l-93 132l76 47z" />
    <glyph glyph-name="uni0215" unicode="&#x215;" horiz-adv-x="604" 
d="M158 500v-292q0 -65 23.5 -103.5t87.5 -38.5q59 0 100.5 22t76.5 67v345h93v-500h-81l-6 79q-36 -48 -82.5 -68.5t-100.5 -20.5q-104 0 -154 56.5t-50 162.5v291h93zM390 557h-64l-69 153l82 30zM285 557h-67l-93 126l76 47z" />
    <glyph glyph-name="uni0216" unicode="&#x216;" horiz-adv-x="680" 
d="M160 650v-379q0 -104 47.5 -156t132.5 -52t132.5 52t47.5 156v379h95v-372q0 -75 -19.5 -129.5t-55 -90.5t-86.5 -53.5t-114 -17.5t-114 17.5t-86.5 53.5t-55 90.5t-19.5 129.5v372h95zM340 772l-132 -86l-21 54l141 119h23l142 -119l-21 -54z" />
    <glyph glyph-name="uni0217" unicode="&#x217;" horiz-adv-x="604" 
d="M158 500v-292q0 -65 23.5 -103.5t87.5 -38.5q59 0 100.5 22t76.5 67v345h93v-500h-81l-6 79q-36 -48 -82.5 -68.5t-100.5 -20.5q-104 0 -154 56.5t-50 162.5v291h93zM302 622l-112 -77l-23 48l123 125h23l124 -125l-23 -48z" />
    <glyph glyph-name="Scommaaccent" unicode="&#x218;" horiz-adv-x="574" 
d="M453 531q-41 29 -81 41.5t-91 12.5q-38 0 -62 -8.5t-38 -21.5t-19.5 -30t-5.5 -33q0 -36 23.5 -60t79.5 -35l93 -19q82 -17 130.5 -66t48.5 -132q0 -42 -17.5 -77t-50.5 -61t-80.5 -40.5t-107.5 -14.5q-36 0 -65.5 3t-56.5 10t-53.5 18t-55.5 27l32 87q56 -35 101 -48
t96 -13q83 0 124.5 31t41.5 77q0 52 -27.5 78.5t-92.5 38.5l-102 19q-72 14 -111.5 62.5t-39.5 110.5q0 39 14 71t41.5 55t67.5 36t92 13q64 0 113 -12t99 -45zM221 -229q62 24 62 68q-30 0 -43.5 16.5t-13.5 37.5q0 10 3 20t10 18.5t18.5 14t28.5 5.5q35 0 53 -25.5
t18 -62.5q0 -19 -7 -39.5t-20.5 -39t-34.5 -34t-49 -24.5z" />
    <glyph glyph-name="scommaaccent" unicode="&#x219;" horiz-adv-x="502" 
d="M406 407q-39 18 -74.5 24.5t-76.5 6.5q-66 0 -95.5 -18.5t-29.5 -47.5q0 -37 33.5 -50.5t99.5 -20.5q94 -10 145.5 -45.5t51.5 -112.5q0 -78 -64 -115.5t-174 -37.5q-55 0 -96.5 7.5t-85.5 26.5l23 76q74 -35 155 -35q155 0 155 79q0 19 -7 32t-23 21.5t-42 14t-65 9.5
q-98 10 -146 43t-48 101q0 30 13 56.5t39.5 46t67 31t94.5 11.5q27 0 49.5 -1.5t43.5 -5t42 -9.5t44 -15zM166 -224q30 14 46 30.5t16 39.5q-30 0 -43.5 16.5t-13.5 37.5q0 10 3 20t10 18.5t18.5 14t28.5 5.5q35 0 53 -25.5t18 -62.5q0 -19 -7 -39.5t-20.5 -39t-34.5 -34
t-49 -24.5z" />
    <glyph glyph-name="uni021A" unicode="&#x21a;" horiz-adv-x="544" 
d="M30 650h484v-76h-194v-574h-96v574h-194v76zM208 -219q62 24 62 68q-30 0 -43.5 16.5t-13.5 37.5q0 10 3 20t10 18.5t18.5 14t28.5 5.5q35 0 53 -25.5t18 -62.5q0 -19 -7 -39.5t-20.5 -39t-34.5 -34t-49 -24.5z" />
    <glyph glyph-name="uni021B" unicode="&#x21b;" horiz-adv-x="434" 
d="M15 469l68 43l73 113l31 -5v-120h199l-3 -77l-196 9v-263q0 -57 26 -81t67 -24q33 0 59.5 9t54.5 26l30 -67q-31 -22 -67.5 -32t-86.5 -10q-86 0 -131.5 45t-45.5 133v255l-78 11v35zM206 -234q30 14 46 30.5t16 39.5q-30 0 -43.5 16.5t-13.5 37.5q0 10 3 20t10 18.5
t18.5 14t28.5 5.5q35 0 53 -25.5t18 -62.5q0 -19 -7 -39.5t-20.5 -39t-34.5 -34t-49 -24.5z" />
    <glyph glyph-name="dotlessj" unicode="&#x237;" horiz-adv-x="233" 
d="M168 500v-529q0 -101 -52 -156.5t-149 -57.5l-7 79q59 4 86.5 32t27.5 86v546h94z" />
    <glyph glyph-name="circumflex" unicode="&#x2c6;" horiz-adv-x="360" 
d="M180 622l-112 -77l-23 48l123 125h23l124 -125l-23 -48z" />
    <glyph glyph-name="caron" unicode="&#x2c7;" horiz-adv-x="360" 
d="M180 646l112 77l23 -48l-123 -125h-23l-124 125l23 48z" />
    <glyph glyph-name="uni02C9" unicode="&#x2c9;" horiz-adv-x="363" 
d="M363 650v-71h-363v71h363z" />
    <glyph glyph-name="breve" unicode="&#x2d8;" horiz-adv-x="366" 
d="M115 669q5 -23 21.5 -37t46.5 -14t46.5 14t21.5 37l70 -13q-13 -55 -51.5 -82t-86.5 -27t-86.5 27t-51.5 82z" />
    <glyph glyph-name="dotaccent" unicode="&#x2d9;" horiz-adv-x="233" 
d="M116 121q32 0 49.5 -19t17.5 -47q0 -29 -17.5 -46t-49.5 -17t-49 17t-17 46q0 28 17 47t49 19z" />
    <glyph glyph-name="ring" unicode="&#x2da;" horiz-adv-x="300" 
d="M150 549q-21 0 -40.5 6.5t-35 19.5t-24.5 32t-9 45q0 23 8.5 42t23.5 32.5t35 21t42 7.5q20 0 39.5 -7t35 -20t25 -32t9.5 -44q0 -26 -9 -45.5t-24 -32t-35 -19t-41 -6.5zM150 603q22 0 37 13t15 36q0 21 -14.5 34.5t-37.5 13.5q-21 0 -36.5 -13.5t-15.5 -34.5t14.5 -35
t37.5 -14z" />
    <glyph glyph-name="ogonek" unicode="&#x2db;" horiz-adv-x="218" 
d="M121 11q19 -7 34 -11q-30 -15 -39.5 -31.5t-9.5 -35.5q0 -16 9 -26.5t35 -10.5q14 0 29 4l-17 -65q-9 -2 -17.5 -3t-16.5 -1q-51 0 -72.5 24t-21.5 59q0 14 5 30t15.5 29.5t27 24t39.5 13.5z" />
    <glyph glyph-name="tilde" unicode="&#x2dc;" horiz-adv-x="421" 
d="M30 625q43 48 114 48q25 0 41.5 -6t30.5 -13.5t28 -13.5t34 -6q21 0 36 7t32 24l41 -46q-23 -29 -48.5 -42.5t-59.5 -13.5q-23 0 -40.5 6.5t-34 14t-32.5 14t-34 6.5q-26 0 -45 -9.5t-35 -29.5z" />
    <glyph glyph-name="hungarumlaut" unicode="&#x2dd;" horiz-adv-x="375" 
d="M106 746l82 -30l-69 -153h-64zM244 736l76 -47l-93 -126h-67z" />
    <glyph glyph-name="pi" unicode="&#x3c0;" horiz-adv-x="583" 
d="M503 500v-378q0 -31 12.5 -42.5t49.5 -11.5l-7 -68q-28 -7 -51 -7q-31 0 -50 10t-29 27.5t-13.5 41.5t-3.5 52v303h-239v-427h-92v423l-72 13v64h495z" />
    <glyph glyph-name="afii10023" unicode="&#x401;" horiz-adv-x="541" 
d="M65 650h419v-79h-323v-194h290v-78h-290v-220h337v-79h-433v650zM165 828q31 0 47.5 -17t16.5 -44q0 -26 -16.5 -43t-47.5 -17q-29 0 -45.5 17t-16.5 43q0 27 16.5 44t45.5 17zM384 828q29 0 46 -17t17 -44q0 -26 -17 -43t-46 -17t-46 17t-17 43q0 27 17 44t46 17z" />
    <glyph glyph-name="afii10051" unicode="&#x402;" horiz-adv-x="765" 
d="M509 650v-76h-192v-186q35 42 82.5 62t98.5 20q104 0 158 -56.5t54 -162.5v-230q0 -98 -52.5 -162.5t-149.5 -81.5l-17 79q66 19 95.5 59.5t29.5 98.5v238q0 66 -27 104t-91 38q-56 0 -100.5 -22t-80.5 -66v-306h-94v574h-198v76h484z" />
    <glyph glyph-name="afii10052" unicode="&#x403;" horiz-adv-x="516" 
d="M477 650v-77h-316v-573h-96v650h412zM325 881l78 -47l-98 -136h-69z" />
    <glyph glyph-name="afii10053" unicode="&#x404;" horiz-adv-x="660" 
d="M472 302h-336q4 -57 25 -100.5t55 -72.5t78.5 -43.5t95.5 -14.5q30 0 56 3t50 10.5t48 19.5t50 30l28 -82q-54 -37 -110.5 -51t-131.5 -14q-65 0 -126.5 20.5t-109 62t-76 105.5t-28.5 151q0 75 28 137.5t76 106.5t112 68.5t135 24.5q73 0 126.5 -17t104.5 -55l-38 -73
q-48 35 -93.5 51t-99.5 16q-51 0 -93.5 -15t-75 -42t-54 -65t-29.5 -83h333v-78z" />
    <glyph glyph-name="afii10054" unicode="&#x405;" horiz-adv-x="574" 
d="M453 531q-41 29 -81 41.5t-91 12.5q-38 0 -62 -8.5t-38 -21.5t-19.5 -30t-5.5 -33q0 -36 23.5 -60t79.5 -35l93 -19q82 -17 130.5 -66t48.5 -132q0 -42 -17.5 -77t-50.5 -61t-80.5 -40.5t-107.5 -14.5q-36 0 -65.5 3t-56.5 10t-53.5 18t-55.5 27l32 87q56 -35 101 -48
t96 -13q83 0 124.5 31t41.5 77q0 52 -27.5 78.5t-92.5 38.5l-102 19q-72 14 -111.5 62.5t-39.5 110.5q0 39 14 71t41.5 55t67.5 36t92 13q64 0 113 -12t99 -45z" />
    <glyph glyph-name="uni0406" unicode="&#x406;" horiz-adv-x="225" 
d="M160 650v-650h-95v650h95z" />
    <glyph glyph-name="afii10056" unicode="&#x407;" horiz-adv-x="225" 
d="M160 650v-650h-95v650h95zM3 829q31 0 47.5 -17t16.5 -44q0 -26 -16.5 -43t-47.5 -17q-29 0 -45.5 17t-16.5 43q0 27 16.5 44t45.5 17zM222 829q29 0 46 -17t17 -44q0 -26 -17 -43t-46 -17t-46 17t-17 43q0 27 17 44t46 17z" />
    <glyph glyph-name="afii10057" unicode="&#x408;" horiz-adv-x="244" 
d="M179 650v-632q0 -67 -17 -113.5t-47.5 -77t-72.5 -47t-91 -23.5l-30 78q40 6 71 16.5t51.5 30.5t31 53.5t10.5 85.5v629h94z" />
    <glyph glyph-name="afii10058" unicode="&#x409;" horiz-adv-x="1051" 
d="M635 650v-243h137q54 0 98.5 -12.5t77 -38t50.5 -63.5t18 -89q0 -50 -18 -88t-50 -63.5t-77 -39t-99 -13.5h-232v574h-238v-151q0 -223 -52 -328q-52 -103 -157 -103q-25 0 -44 3t-36 11l14 77q15 -5 28.5 -7t27.5 -2q54 0 84 62q43 90 43 327v187h425zM635 78h133
q33 0 61 6.5t48.5 21.5t32 39t11.5 59t-11.5 59t-32 38.5t-49 21t-62.5 6.5h-131v-251z" />
    <glyph glyph-name="afii10059" unicode="&#x40a;" horiz-adv-x="1000" 
d="M160 650v-253h324v253h95v-253h142q54 0 98.5 -12t77 -36t50.5 -61.5t18 -88.5q0 -50 -18 -87t-50 -62t-77 -37.5t-99 -12.5h-237v320h-324v-320h-95v650h95zM579 78h138q33 0 61 6t48.5 20t32 37t11.5 58t-11.5 58.5t-32 37t-49 19t-62.5 5.5h-136v-241z" />
    <glyph glyph-name="afii10060" unicode="&#x40b;" horiz-adv-x="765" 
d="M509 650v-76h-192v-186q35 42 82.5 62t98.5 20q104 0 158 -56.5t54 -162.5v-251h-94v252q0 66 -27 104t-91 38q-56 0 -100.5 -22t-80.5 -66v-306h-94v574h-198v76h484z" />
    <glyph glyph-name="afii10061" unicode="&#x40c;" horiz-adv-x="659" 
d="M161 650v-239h139l104 167q25 40 58.5 61t73.5 21q35 0 69 -10l-14 -80q-17 5 -35 5q-26 0 -46 -10.5t-39 -40.5l-95 -149l244 -375h-109l-211 332h-139v-332h-96v650h96zM350 881l78 -47l-98 -136h-69z" />
    <glyph glyph-name="afii10062" unicode="&#x40e;" horiz-adv-x="682" 
d="M132 650l227 -519h6l194 519h98l-237 -601q-17 -44 -36 -77.5t-41.5 -56t-50 -34.5t-62.5 -12q-28 0 -49.5 5.5t-42.5 18.5l22 75q16 -8 29 -11t27 -3q31 0 57 15.5t42 62.5l-290 618h107zM248 829q14 -29 39.5 -44t56.5 -15q68 0 97 59l60 -27q-17 -53 -58.5 -79
t-98.5 -26q-56 0 -98.5 27t-57.5 78z" />
    <glyph glyph-name="afii10145" unicode="&#x40f;" horiz-adv-x="656" 
d="M161 650v-572h334v572h96v-650h-208l-12 -141h-70l-12 141h-224v650h96z" />
    <glyph glyph-name="afii10017" unicode="&#x410;" horiz-adv-x="707" 
d="M406 650l278 -650h-99l-85 197h-299l-81 -197h-98l279 650h105zM232 275h238l-114 283h-9z" />
    <glyph glyph-name="afii10018" unicode="&#x411;" horiz-adv-x="594" 
d="M500 650v-76h-340v-174h138q56 0 102 -12.5t79 -37.5t51 -62.5t18 -87.5q0 -49 -18 -86t-50.5 -62.5t-78 -38.5t-100.5 -13h-236v650h435zM160 77h128q87 0 126 29t39 94q0 70 -41.5 96.5t-126.5 26.5h-125v-246z" />
    <glyph glyph-name="afii10019" unicode="&#x412;" horiz-adv-x="601" 
d="M292 650q45 0 85.5 -9.5t70.5 -30.5t48 -54t18 -79q0 -38 -15.5 -69t-50.5 -51v-4q111 -56 111 -168q0 -45 -19 -79.5t-50.5 -58t-73.5 -35.5t-87 -12h-264v650h227zM159 77h161q28 0 54.5 5.5t46.5 18.5t32 34t12 52q0 60 -38 89.5t-99 29.5h-169v-229zM159 380h148
q55 0 84.5 25.5t29.5 68.5q0 51 -32.5 75.5t-86.5 24.5h-143v-194z" />
    <glyph glyph-name="afii10020" unicode="&#x413;" horiz-adv-x="516" 
d="M477 650v-77h-316v-573h-96v650h412z" />
    <glyph glyph-name="afii10021" unicode="&#x414;" horiz-adv-x="731" 
d="M630 650v-572h70l-8 -219h-74l-12 141h-485l-15 -141h-76v217q15 4 31.5 11t27.5 18q24 22 42 57t29 78.5t16.5 95t5.5 106.5v208h448zM274 573v-120q0 -129 -25 -228t-75 -147h362v495h-262z" />
    <glyph glyph-name="afii10022" unicode="&#x415;" horiz-adv-x="541" 
d="M65 650h419v-79h-323v-194h290v-78h-290v-220h337v-79h-433v650z" />
    <glyph glyph-name="afii10024" unicode="&#x416;" horiz-adv-x="1011" 
d="M552 650v-244h109l84 172q20 42 56 62t76 20q35 0 69 -10l-12 -80q-17 5 -35 5q-26 0 -49 -10t-38 -41l-75 -154l234 -370h-109l-203 330h-107v-330h-94v330h-107l-203 -330h-109l234 370l-75 154q-15 31 -38 41t-49 10q-18 0 -35 -5l-12 80q34 10 69 10q40 0 76 -20
t56 -62l84 -172h109v244h94z" />
    <glyph glyph-name="afii10025" unicode="&#x417;" horiz-adv-x="566" 
d="M293 395q51 0 80 24t29 68q0 18 -7 36t-22.5 32t-40 23t-60.5 9q-27 0 -49 -3t-42 -10t-39 -19t-40 -29l-38 66q47 40 98 55.5t113 15.5q48 0 88.5 -13t69.5 -36t45 -54.5t16 -68.5q0 -39 -19.5 -72t-55.5 -49v-4q48 -21 80 -66t32 -102q0 -49 -19 -88t-53 -66.5t-81 -42
t-102 -14.5q-37 0 -67 2.5t-57 9.5t-53 19t-54 30l31 84q25 -21 47 -33.5t44.5 -20t47 -10t53.5 -2.5q33 0 64 8t54 24t37 40.5t14 57.5q0 63 -35 93.5t-96 30.5h-130v75h117z" />
    <glyph glyph-name="afii10026" unicode="&#x418;" horiz-adv-x="702" 
d="M158 650v-522h4l386 522h89v-650h-93v503h-4l-376 -503h-99v650h93z" />
    <glyph glyph-name="afii10027" unicode="&#x419;" horiz-adv-x="702" 
d="M158 650v-522h4l386 522h89v-650h-93v503h-4l-376 -503h-99v650h93zM255 829q14 -29 39.5 -44t56.5 -15q68 0 97 59l60 -27q-17 -53 -58.5 -79t-98.5 -26q-56 0 -98.5 27t-57.5 78z" />
    <glyph glyph-name="afii10028" unicode="&#x41a;" horiz-adv-x="659" 
d="M161 650v-239h139l104 167q25 40 58.5 61t73.5 21q35 0 69 -10l-14 -80q-17 5 -35 5q-26 0 -46 -10.5t-39 -40.5l-95 -149l244 -375h-109l-211 332h-139v-332h-96v650h96z" />
    <glyph glyph-name="afii10029" unicode="&#x41b;" horiz-adv-x="720" 
d="M655 650v-650h-95v574h-258v-151q0 -223 -52 -328q-52 -103 -157 -103q-25 0 -44 3t-36 11l14 77q15 -5 28.5 -7t27.5 -2q54 0 84 62q43 90 43 327v187h445z" />
    <glyph glyph-name="afii10030" unicode="&#x41c;" horiz-adv-x="761" 
d="M182 650l198 -296l202 296h114v-650h-92v368l2 164h-9l-199 -291h-39l-197 291h-8l1 -164v-368h-90v650h117z" />
    <glyph glyph-name="afii10031" unicode="&#x41d;" horiz-adv-x="669" 
d="M604 650v-650h-95v303h-349v-303h-95v650h95v-270h349v270h95z" />
    <glyph glyph-name="afii10032" unicode="&#x41e;" horiz-adv-x="780" 
d="M740 325q0 -75 -27 -137t-74.5 -107t-111.5 -69.5t-137 -24.5q-74 0 -137.5 24.5t-111 69.5t-74.5 107t-27 137t27 137t74.5 107t111 69.5t137.5 24.5q73 0 137 -24.5t111.5 -69.5t74.5 -107t27 -137zM136 325q0 -62 20.5 -110t55 -81t80.5 -50.5t98 -17.5t98 17.5
t80.5 50.5t55 81t20.5 110t-20.5 110t-55 81t-80.5 50.5t-98 17.5t-98 -17.5t-80.5 -50.5t-55 -81t-20.5 -110z" />
    <glyph glyph-name="afii10033" unicode="&#x41f;" horiz-adv-x="650" 
d="M585 650v-650h-94v573h-332v-573h-94v650h520z" />
    <glyph glyph-name="afii10034" unicode="&#x420;" horiz-adv-x="594" 
d="M291 650q55 0 102 -14t81.5 -40t54 -64t19.5 -87q0 -50 -19 -88t-53 -64t-81.5 -39.5t-103.5 -13.5h-131v-240h-95v650h226zM160 317h118q85 0 130 29t45 99q0 65 -45 96.5t-130 31.5h-118v-256z" />
    <glyph glyph-name="afii10035" unicode="&#x421;" horiz-adv-x="660" 
d="M584 518q-48 35 -93.5 51t-99.5 16q-58 0 -105.5 -19.5t-81 -54t-51.5 -82t-18 -103.5q0 -63 20 -110.5t54.5 -80t81 -48.5t99.5 -16q30 0 56 3t50 10.5t48 19.5t50 30l28 -82q-54 -37 -110.5 -51t-131.5 -14q-65 0 -126.5 20.5t-109 62t-76 105.5t-28.5 151
q0 75 28 137.5t76 106.5t112 68.5t135 24.5q73 0 126.5 -17t104.5 -55z" />
    <glyph glyph-name="afii10036" unicode="&#x422;" horiz-adv-x="544" 
d="M30 650h484v-76h-194v-574h-96v574h-194v76z" />
    <glyph glyph-name="afii10037" unicode="&#x423;" horiz-adv-x="682" 
d="M132 650l227 -519h6l194 519h98l-237 -601q-17 -44 -36 -77.5t-41.5 -56t-50 -34.5t-62.5 -12q-28 0 -49.5 5.5t-42.5 18.5l22 75q16 -8 29 -11t27 -3q31 0 57 15.5t42 62.5l-290 618h107z" />
    <glyph glyph-name="afii10038" unicode="&#x424;" horiz-adv-x="838" 
d="M466 663v-92q37 6 79 6q61 0 108.5 -19t79.5 -52t48.5 -78t16.5 -97t-16.5 -97t-48.5 -78.5t-79.5 -52.5t-108.5 -19q-42 0 -79 6v-90h-94v90q-38 -6 -79 -6q-62 0 -109 19t-79 52.5t-48.5 78.5t-16.5 97t16.5 97t48.5 78t79 52t109 19q41 0 79 -6v92h94zM372 494
q-20 4 -40.5 5t-40.5 1q-75 0 -116 -43.5t-41 -125.5t41 -125.5t116 -43.5q20 0 40.5 1t40.5 5v326zM466 168q20 -4 40.5 -5t40.5 -1q75 0 116 43.5t41 125.5t-41 125.5t-116 43.5q-20 0 -40.5 -1t-40.5 -5v-326z" />
    <glyph glyph-name="afii10039" unicode="&#x425;" horiz-adv-x="682" 
d="M162 650l178 -257l182 257h107l-226 -307l254 -343h-115l-205 289l-204 -289h-108l249 343l-226 307h114z" />
    <glyph glyph-name="afii10040" unicode="&#x426;" horiz-adv-x="693" 
d="M160 650v-573h335v573h95v-573h73l-8 -218h-75l-12 141h-503v650h95z" />
    <glyph glyph-name="afii10041" unicode="&#x427;" horiz-adv-x="626" 
d="M465 0v206q-72 -9 -135 -9q-65 0 -116.5 15t-88 46t-56 79.5t-19.5 115.5v197h96v-189q0 -46 11.5 -80t37.5 -56.5t68.5 -33.5t105.5 -11q24 0 48.5 1t47.5 3v366h96v-650h-96z" />
    <glyph glyph-name="afii10042" unicode="&#x428;" horiz-adv-x="921" 
d="M65 650h95v-573h253v573h95v-573h253v573h95v-650h-791v650z" />
    <glyph glyph-name="afii10043" unicode="&#x429;" horiz-adv-x="959" 
d="M65 650h95v-574h253v574h95v-574h253v574h95v-574h73l-9 -217h-75l-12 141h-768v650z" />
    <glyph glyph-name="afii10044" unicode="&#x42a;" horiz-adv-x="681" 
d="M240 650v-243h157q54 0 98.5 -12.5t77 -38t50.5 -63.5t18 -89q0 -50 -18 -88t-50 -63.5t-77 -39t-99 -13.5h-252v570l-130 8v72h225zM240 78h153q33 0 61 6.5t48.5 21.5t32 39t11.5 59t-11.5 59t-32 38.5t-49 21t-62.5 6.5h-151v-251z" />
    <glyph glyph-name="afii10045" unicode="&#x42b;" horiz-adv-x="782" 
d="M622 650h95v-650h-95v650zM160 650v-243h157q54 0 98.5 -12.5t77 -38t50.5 -63.5t18 -89q0 -50 -18 -88t-50 -63.5t-77 -39t-99 -13.5h-252v650h95zM160 78h153q33 0 61 6.5t48.5 21.5t32.5 39t12 59t-11.5 59t-32.5 38.5t-49.5 21t-62.5 6.5h-151v-251z" />
    <glyph glyph-name="afii10046" unicode="&#x42c;" horiz-adv-x="601" 
d="M160 650v-243h157q54 0 98.5 -12.5t77 -38t50.5 -63.5t18 -89q0 -50 -18 -88t-50 -63.5t-77 -39t-99 -13.5h-252v650h95zM160 78h153q33 0 61 6.5t48.5 21.5t32 39t11.5 59t-11.5 59t-32 38.5t-49 21t-62.5 6.5h-151v-251z" />
    <glyph glyph-name="afii10047" unicode="&#x42d;" horiz-adv-x="664" 
d="M527 380q-8 45 -27.5 83t-50.5 65t-72 42t-92 15q-54 0 -104.5 -16t-98.5 -51l-38 73q51 38 109.5 55t131.5 17q71 0 133.5 -24t108.5 -68t72.5 -106t26.5 -139q0 -83 -28 -146.5t-74.5 -106.5t-107 -64.5t-125.5 -21.5q-77 0 -134 15t-110 50l24 82q26 -18 50.5 -30
t49 -19.5t51.5 -10.5t59 -3q51 0 94.5 14.5t76.5 43.5t53.5 72.5t24.5 100.5h-324v78h321z" />
    <glyph glyph-name="afii10048" unicode="&#x42e;" horiz-adv-x="964" 
d="M160 650v-269h107q9 63 36 115t69.5 89t99 57.5t122.5 20.5q73 0 134 -24.5t104.5 -69.5t67.5 -107t24 -137t-24 -137t-67.5 -107t-104.5 -69.5t-134 -24.5q-71 0 -130 23t-102 64t-68 99t-29 129h-105v-302h-95v650h95zM360 325q0 -62 17 -110t48 -81t74 -50.5t95 -17.5
t95 17.5t74 50.5t48 81t17 110t-17 110t-48 81t-74 50.5t-95 17.5t-95 -17.5t-74 -50.5t-48 -81t-17 -110z" />
    <glyph glyph-name="afii10049" unicode="&#x42f;" horiz-adv-x="625" 
d="M560 0h-95v257h-150l-172 -257h-110l189 268q-72 18 -115 65t-43 120q0 46 18 82.5t50 62t77 39t99 13.5h252v-650zM312 572q-33 0 -61 -6t-48.5 -20.5t-32 -37t-11.5 -55.5q0 -32 11.5 -54.5t32 -36.5t49 -20.5t62.5 -6.5h151v237h-153z" />
    <glyph glyph-name="afii10065" unicode="&#x430;" horiz-adv-x="602" 
d="M79 466q56 23 103.5 33.5t109.5 10.5q111 0 163.5 -41t52.5 -133v-209q0 -36 12 -48.5t50 -12.5v-66q-17 -5 -31.5 -7.5t-34.5 -2.5q-31 0 -49 22t-21 60q-69 -82 -206 -82q-88 0 -133.5 41t-45.5 112q0 34 10.5 62t36.5 57q34 10 68.5 18t73.5 13t83 8t97 4v28
q0 52 -28.5 76t-101.5 24q-94 0 -189 -41zM418 238q-87 -2 -146.5 -9.5t-108.5 -20.5q-20 -24 -20 -60q0 -41 25.5 -61.5t72.5 -20.5q50 0 92.5 15t84.5 51v106z" />
    <glyph glyph-name="afii10066" unicode="&#x431;" horiz-adv-x="616" 
d="M566 687q-23 -42 -61.5 -67t-91.5 -35l-122 -22q-75 -14 -110 -62t-47 -125h8q29 50 79 72t113 22q52 0 96 -16t76.5 -46.5t51 -75.5t18.5 -102q0 -56 -20 -100t-55 -75.5t-82.5 -48t-101.5 -16.5q-71 0 -122 22t-84 62t-49 96.5t-16 124.5q0 82 17.5 143t50 104
t77.5 68.5t100 35.5l117 22q28 5 55 22.5t47 44.5zM143 232q0 -38 13 -68.5t35.5 -53t54 -34.5t69.5 -12q37 0 68.5 11.5t53.5 33.5t34.5 52.5t12.5 68.5q0 79 -43.5 122.5t-123.5 43.5q-40 0 -72 -12.5t-54.5 -34t-35 -51.5t-12.5 -66z" />
    <glyph glyph-name="afii10067" unicode="&#x432;" horiz-adv-x="554" 
d="M307 500q35 0 66.5 -8t55.5 -24.5t38 -41.5t14 -60q0 -33 -15.5 -55t-41.5 -36v-5q39 -11 63.5 -42.5t24.5 -76.5q0 -36 -13.5 -64t-38 -47.5t-57.5 -29.5t-72 -10h-266v500h242zM158 70h163q48 0 73.5 19t25.5 60q0 40 -24 57t-74 17h-164v-153zM158 294h159
q32 0 52.5 17t20.5 50q0 32 -20.5 50t-56.5 18h-155v-135z" />
    <glyph glyph-name="afii10068" unicode="&#x433;" horiz-adv-x="476" 
d="M435 500v-77h-277v-423h-93v500h370z" />
    <glyph glyph-name="afii10069" unicode="&#x434;" horiz-adv-x="632" 
d="M540 500v-426h63l-11 -196h-70l-11 122h-397l-17 -122h-73v192q38 20 63.5 49.5t40.5 67.5t21.5 83.5t6.5 97.5v132h384zM242 334q0 -84 -21.5 -148t-72.5 -112h299v351h-205v-91z" />
    <glyph glyph-name="afii10070" unicode="&#x435;" horiz-adv-x="587" 
d="M136 227q3 -41 19 -71.5t42 -50t59.5 -29t69.5 -9.5q53 0 93.5 8.5t79.5 30.5l27 -76q-25 -12 -47.5 -19.5t-46.5 -12t-51.5 -6.5t-60.5 -2q-68 0 -120 18t-87.5 52t-54 82t-18.5 107q0 58 20.5 106.5t57.5 82.5t86.5 53t108.5 19q60 0 104 -15.5t73 -43t43 -65.5t14 -83
q0 -21 -2 -38.5t-7 -37.5h-402zM457 299q-1 74 -37 105t-117 31q-30 0 -59.5 -8.5t-52.5 -25.5t-38.5 -42.5t-18.5 -59.5h323z" />
    <glyph glyph-name="afii10072" unicode="&#x436;" horiz-adv-x="898" 
d="M494 500v-188h96l67 126q19 35 46.5 52.5t69.5 17.5q18 0 33 -3t26 -8l-15 -69q-17 4 -34 4q-20 0 -34 -11t-26 -33l-60 -109l190 -279h-104l-159 240h-96v-240h-90v240h-96l-159 -240h-104l190 279l-60 109q-12 22 -26 33t-34 11q-17 0 -34 -4l-15 69q11 5 26 8t33 3
q42 0 69.5 -17.5t46.5 -52.5l67 -126h96v188h90z" />
    <glyph glyph-name="afii10073" unicode="&#x437;" horiz-adv-x="531" 
d="M50 469q24 11 47 19t47 13t50 7t58 2q36 0 71.5 -7t63.5 -23t45.5 -43t17.5 -66q0 -32 -13 -55t-45 -38v-4q47 -17 68.5 -45t21.5 -76q0 -35 -14.5 -65t-44.5 -51.5t-76 -34t-109 -12.5q-68 0 -118 11.5t-96 38.5l34 69q41 -23 82.5 -34t96.5 -11q29 0 56 4t48 14.5
t33.5 27.5t12.5 44q0 42 -26.5 60.5t-75.5 18.5h-148v72h141q15 0 29.5 3t26 9.5t18.5 18.5t7 30q0 41 -31 56t-88 15q-50 0 -87 -9t-75 -28z" />
    <glyph glyph-name="afii10074" unicode="&#x438;" horiz-adv-x="604" 
d="M156 500v-254l-3 -128l298 382h88v-500h-91v197l2 179l-295 -376h-90v500h91z" />
    <glyph glyph-name="afii10075" unicode="&#x439;" horiz-adv-x="604" 
d="M156 500v-254l-3 -128l298 382h88v-500h-91v197l2 179l-295 -376h-90v500h91zM234 669q5 -23 21.5 -37t46.5 -14t46.5 14t21.5 37l70 -13q-13 -55 -51.5 -82t-86.5 -27t-86.5 27t-51.5 82z" />
    <glyph glyph-name="afii10076" unicode="&#x43a;" horiz-adv-x="566" 
d="M158 500v-185h124l70 123q22 38 52.5 54t72.5 16q34 0 55 -11l-16 -74q-19 4 -35 4q-24 0 -37.5 -11t-26.5 -32l-63 -107l181 -277h-108l-150 240h-119v-240h-93v500h93z" />
    <glyph glyph-name="afii10077" unicode="&#x43b;" horiz-adv-x="611" 
d="M546 500v-500h-92v426h-204v-80q0 -47 -2.5 -91.5t-9.5 -84t-21 -72.5t-36 -58q-20 -23 -46.5 -35.5t-64.5 -12.5q-21 0 -36 3t-31 11l12 70q18 -6 34 -6q24 0 38.5 4t27.5 18q30 32 38.5 99t8.5 165v144h384z" />
    <glyph glyph-name="afii10078" unicode="&#x43c;" horiz-adv-x="724" 
d="M179 500l183 -304l180 304h117v-500h-92v226l3 162h-5l-176 -288h-60l-174 288h-5l2 -135v-253h-87v500h114z" />
    <glyph glyph-name="afii10079" unicode="&#x43d;" horiz-adv-x="592" 
d="M157 500v-203h278v203h92v-500h-92v223h-278v-223h-92v500h92z" />
    <glyph glyph-name="afii10080" unicode="&#x43e;" horiz-adv-x="638" 
d="M598 250q0 -60 -22 -108t-59.5 -82t-88.5 -52t-109 -18t-109 18t-88.5 52t-59.5 82t-22 108t22 108t59.5 82t88.5 52t109 18t109 -18t88.5 -52t59.5 -82t22 -108zM131 250q0 -87 50 -137t138 -50t138 50t50 137t-50 137t-138 50t-138 -50t-50 -137z" />
    <glyph glyph-name="afii10081" unicode="&#x43f;" horiz-adv-x="583" 
d="M518 500v-500h-92v426h-269v-426h-92v500h453z" />
    <glyph glyph-name="afii10082" unicode="&#x440;" horiz-adv-x="609" 
d="M65 481q29 7 55.5 12.5t53.5 9t56 5.5t62 2q135 0 206 -69t71 -192q0 -57 -16 -104.5t-47.5 -82t-80 -53.5t-112.5 -19q-51 0 -86 10.5t-69 36.5v-267h-93v711zM158 123q36 -31 73 -43t82 -12q76 0 119.5 47.5t43.5 133.5q0 94 -48.5 141t-135.5 47q-23 0 -40.5 -1
t-33 -3.5t-30 -6t-30.5 -8.5v-295z" />
    <glyph glyph-name="afii10083" unicode="&#x441;" horiz-adv-x="548" 
d="M471 403q-33 17 -66.5 25t-71.5 8q-94 0 -146.5 -48t-52.5 -139q0 -41 14.5 -75t40 -58t58.5 -37t71 -13q93 0 170 42l28 -73q-48 -26 -96 -35.5t-107 -9.5q-63 0 -113.5 19.5t-86 54t-54.5 81.5t-19 102q0 59 22.5 107.5t61.5 83t91 53.5t112 19t102.5 -9t80.5 -29z" />
    <glyph glyph-name="afii10084" unicode="&#x442;" horiz-adv-x="519" 
d="M35 427v73h449v-73h-178v-427h-93v427h-178z" />
    <glyph glyph-name="afii10085" unicode="&#x443;" horiz-adv-x="599" 
d="M579 500l-224 -582q-23 -60 -65 -90t-96 -30q-15 0 -27 1t-25 5l10 75q26 0 46 2.5t35.5 10t26.5 21.5t20 37l18 50h-72l-206 500h105l158 -423h43l152 423h101z" />
    <glyph glyph-name="afii10086" unicode="&#x444;" horiz-adv-x="814" 
d="M452 720v-220q16 4 32.5 7t32.5 3q57 0 104.5 -17t81.5 -50t52.5 -81.5t18.5 -111.5q0 -59 -20 -107t-55 -82t-81.5 -52.5t-100.5 -18.5q-16 0 -32.5 3t-32.5 7v-230h-90v230q-16 -4 -32.5 -7t-32.5 -3q-57 0 -104.5 17t-81.5 50t-52.5 81.5t-18.5 111.5q0 59 20 107
t55 82t81.5 52.5t100.5 18.5q16 0 32.5 -3t32.5 -7v220h90zM452 73q29 -10 60 -10q77 0 123 48t46 139t-46 139t-123 48q-31 0 -60 -10v-354zM362 427q-29 10 -60 10q-77 0 -123 -48t-46 -139t46 -139t123 -48q31 0 60 10v354z" />
    <glyph glyph-name="afii10087" unicode="&#x445;" horiz-adv-x="607" 
d="M155 500l135 -200h4l145 200h103l-176 -238l192 -262h-110l-154 220h-4l-156 -220h-104l193 261l-177 239h109z" />
    <glyph glyph-name="afii10088" unicode="&#x446;" horiz-adv-x="607" 
d="M158 500v-426h263v426h93v-426h64l-7 -196h-70l-11 122h-425v500h93z" />
    <glyph glyph-name="afii10089" unicode="&#x447;" horiz-adv-x="569" 
d="M137 500v-147q0 -67 32.5 -98.5t100.5 -31.5q43 0 75 8.5t66 29.5v239h93v-500h-93v188q-66 -42 -150 -42q-103 0 -160 51t-57 152v151h93z" />
    <glyph glyph-name="afii10090" unicode="&#x448;" horiz-adv-x="836" 
d="M65 500h92v-426h215v426h92v-426h215v426h92v-500h-706v500z" />
    <glyph glyph-name="afii10091" unicode="&#x449;" horiz-adv-x="852" 
d="M157 500v-426h214v426h92v-426h214v426h92v-426h53l-8 -196h-71l-11 122h-667v500h92z" />
    <glyph glyph-name="afii10092" unicode="&#x44a;" horiz-adv-x="629" 
d="M239 500v-175q30 13 65.5 21t74.5 8q47 0 86 -11.5t66.5 -33.5t43 -55.5t15.5 -76.5q0 -47 -16.5 -80t-45.5 -55t-68.5 -32t-85.5 -10h-228v425l-117 6v69h210zM364 73q66 0 99.5 25.5t33.5 79.5q0 49 -29 75.5t-82 26.5q-26 0 -46 -1t-36.5 -3.5t-32 -7t-32.5 -10.5
v-185h125z" />
    <glyph glyph-name="afii10093" unicode="&#x44b;" horiz-adv-x="734" 
d="M669 500v-500h-93v500h93zM158 500v-175q30 13 65.5 21t74.5 8q47 0 86 -11.5t66.5 -33.5t43 -55.5t15.5 -76.5q0 -47 -16.5 -80t-45.5 -55t-68.5 -32t-85.5 -10h-228v500h93zM283 73q66 0 99.5 25.5t33.5 79.5q0 49 -29 75.5t-82 26.5q-26 0 -46 -1t-36.5 -3.5t-32 -7
t-32.5 -10.5v-185h125z" />
    <glyph glyph-name="afii10094" unicode="&#x44c;" horiz-adv-x="549" 
d="M158 500v-175q30 13 65.5 21t74.5 8q47 0 86 -11.5t66.5 -33.5t43 -55.5t15.5 -76.5q0 -47 -16.5 -80t-45.5 -55t-68.5 -32t-85.5 -10h-228v500h93zM283 73q66 0 99.5 25.5t33.5 79.5q0 49 -29 75.5t-82 26.5q-26 0 -46 -1t-36.5 -3.5t-32 -7t-32.5 -10.5v-185h125z" />
    <glyph glyph-name="afii10095" unicode="&#x44d;" horiz-adv-x="548" 
d="M415 299q-11 69 -56 103t-120 34q-44 0 -83 -8.5t-79 -28.5l-33 66q48 23 96 34t105 11q68 0 118.5 -19.5t83.5 -54t49.5 -81.5t16.5 -102q0 -59 -21 -107.5t-59 -83t-91 -53.5t-116 -19q-54 0 -100 8.5t-90 30.5l23 75q41 -21 82 -29.5t79 -8.5q87 0 138.5 41t59.5 120
h-266v72h263z" />
    <glyph glyph-name="afii10096" unicode="&#x44e;" horiz-adv-x="808" 
d="M156 500v-204h93q7 50 29 89.5t56 67.5t78 42.5t95 14.5q58 0 106 -18t82.5 -52t53.5 -82t19 -108t-19.5 -108t-54.5 -82t-82.5 -52t-104.5 -18q-55 0 -100.5 16t-79.5 46t-55 73t-25 97h-91v-222h-91v500h91zM336 250q0 -87 45.5 -137t125.5 -50t125.5 50t45.5 137
t-45.5 137t-125.5 50t-125.5 -50t-45.5 -137z" />
    <glyph glyph-name="afii10097" unicode="&#x44f;" horiz-adv-x="563" 
d="M416 0v169q-30 -12 -71 -17t-89 -5l-96 -147h-104l113 166q-50 19 -82 57t-32 98q0 46 18 80t49 56t72 32.5t87 10.5h228v-500h-93zM288 427q-66 0 -103 -26.5t-37 -80.5q0 -49 32.5 -74.5t85.5 -25.5q67 2 84 4.5t33 5.5t33 8v189h-128z" />
    <glyph glyph-name="afii10071" unicode="&#x451;" horiz-adv-x="587" 
d="M136 227q3 -41 19 -71.5t42 -50t59.5 -29t69.5 -9.5q53 0 93.5 8.5t79.5 30.5l27 -76q-25 -12 -47.5 -19.5t-46.5 -12t-51.5 -6.5t-60.5 -2q-68 0 -120 18t-87.5 52t-54 82t-18.5 107q0 58 20.5 106.5t57.5 82.5t86.5 53t108.5 19q60 0 104 -15.5t73 -43t43 -65.5t14 -83
q0 -21 -2 -38.5t-7 -37.5h-402zM457 299q-1 74 -37 105t-117 31q-30 0 -59.5 -8.5t-52.5 -25.5t-38.5 -42.5t-18.5 -59.5h323zM205 681q29 0 45.5 -17t16.5 -43q0 -25 -16.5 -41.5t-45.5 -16.5q-28 0 -44.5 16.5t-16.5 41.5q0 26 16.5 43t44.5 17zM428 681q29 0 45.5 -17
t16.5 -43q0 -25 -16.5 -41.5t-45.5 -16.5q-28 0 -44.5 16.5t-16.5 41.5q0 26 16.5 43t44.5 17z" />
    <glyph glyph-name="afii10099" unicode="&#x452;" horiz-adv-x="625" 
d="M173 729v-102h221l-4 -80l-217 8v-137q35 42 80 62t99 20q104 0 156.5 -57.5t52.5 -163.5v-243q0 -104 -52 -164.5t-149 -74.5l-17 76q66 13 95.5 51t29.5 103v253q0 66 -26 105t-90 39q-56 0 -98.5 -21.5t-80.5 -66.5v-336h-93v552l-80 8v49l70 38l62 86z" />
    <glyph glyph-name="afii10100" unicode="&#x453;" horiz-adv-x="476" 
d="M435 500v-77h-277v-423h-93v500h370zM322 746l73 -47l-103 -136h-64z" />
    <glyph glyph-name="afii10101" unicode="&#x454;" horiz-adv-x="548" 
d="M405 227h-270q4 -37 20 -66.5t40.5 -50.5t56 -32.5t66.5 -11.5q93 0 170 42l28 -73q-48 -26 -96 -35.5t-107 -9.5q-63 0 -113.5 19.5t-86 54t-54.5 81.5t-19 102q0 59 22.5 107.5t61.5 83t91 53.5t112 19t102.5 -9t80.5 -29l-39 -69q-33 17 -66.5 25t-71.5 8
q-80 0 -130 -35t-64 -102h266v-72z" />
    <glyph glyph-name="afii10102" unicode="&#x455;" horiz-adv-x="502" 
d="M406 407q-39 18 -74.5 24.5t-76.5 6.5q-66 0 -95.5 -18.5t-29.5 -47.5q0 -37 33.5 -50.5t99.5 -20.5q94 -10 145.5 -45.5t51.5 -112.5q0 -78 -64 -115.5t-174 -37.5q-55 0 -96.5 7.5t-85.5 26.5l23 76q74 -35 155 -35q155 0 155 79q0 19 -7 32t-23 21.5t-42 14t-65 9.5
q-98 10 -146 43t-48 101q0 30 13 56.5t39.5 46t67 31t94.5 11.5q27 0 49.5 -1.5t43.5 -5t42 -9.5t44 -15z" />
    <glyph glyph-name="afii10103" unicode="&#x456;" horiz-adv-x="223" 
d="M158 500v-500h-93v500h93zM112 716q31 0 48 -18.5t17 -44.5q0 -25 -17 -44t-48 -19t-48 19t-17 44q0 26 17 44.5t48 18.5z" />
    <glyph glyph-name="afii10104" unicode="&#x457;" horiz-adv-x="223" 
d="M158 500v-500h-93v500h93zM0 681q29 0 45.5 -17t16.5 -43q0 -25 -16.5 -41.5t-45.5 -16.5q-28 0 -44.5 16.5t-16.5 41.5q0 26 16.5 43t44.5 17zM223 681q29 0 45.5 -17t16.5 -43q0 -25 -16.5 -41.5t-45.5 -16.5q-28 0 -44.5 16.5t-16.5 41.5q0 26 16.5 43t44.5 17z" />
    <glyph glyph-name="afii10105" unicode="&#x458;" horiz-adv-x="233" 
d="M168 500v-529q0 -101 -52 -156.5t-149 -57.5l-7 79q59 4 86.5 32t27.5 86v546h94zM121 716q31 0 48 -18.5t17 -44.5q0 -25 -17 -44t-48 -19t-48 19t-17 44q0 26 17 44.5t48 18.5z" />
    <glyph glyph-name="afii10106" unicode="&#x459;" horiz-adv-x="887" 
d="M526 500v-175q26 14 54.5 21.5t65.5 7.5q47 0 86 -11.5t66.5 -33.5t43 -55.5t15.5 -76.5q0 -47 -16.5 -80t-45.5 -55t-68.5 -32t-85.5 -10h-207v426h-185v-80q0 -47 -2.5 -91.5t-9.5 -84t-21 -73t-36 -58.5q-20 -23 -46 -34.5t-64 -11.5q-21 0 -36 2t-31 9l11 70
q9 -3 17.5 -4t16.5 -1q24 0 39 6t28 20q30 32 38.5 97.5t8.5 163.5v144h364zM631 73q66 0 99.5 25.5t33.5 79.5q0 49 -30.5 75.5t-90.5 26.5q-19 0 -33.5 -1t-28 -3.5t-27 -7t-28.5 -10.5v-185h105z" />
    <glyph glyph-name="afii10107" unicode="&#x45a;" horiz-adv-x="877" 
d="M157 500v-203h267v203h92v-175q26 14 55.5 21.5t66.5 7.5q47 0 85.5 -11.5t66 -33.5t42.5 -55.5t15 -76.5q0 -47 -16.5 -80t-45.5 -55t-68.5 -32t-85.5 -10h-207v223h-267v-223h-92v500h92zM621 73q66 0 99.5 25.5t33.5 79.5q0 49 -29.5 75.5t-89.5 26.5q-19 0 -34 -1
t-29 -3.5t-27.5 -7t-28.5 -10.5v-185h105z" />
    <glyph glyph-name="afii10108" unicode="&#x45b;" horiz-adv-x="625" 
d="M173 729v-102h221l-4 -80l-217 8v-137q35 42 80 62t99 20q104 0 156.5 -57.5t52.5 -163.5v-279h-93v280q0 66 -26 105t-90 39q-56 0 -98.5 -21.5t-80.5 -66.5v-336h-93v552l-80 8v49l70 38l62 86z" />
    <glyph glyph-name="afii10109" unicode="&#x45c;" horiz-adv-x="566" 
d="M335 746l73 -47l-103 -136h-64zM158 500v-185h124l70 123q22 38 52.5 54t72.5 16q34 0 55 -11l-16 -74q-19 4 -35 4q-24 0 -37.5 -11t-26.5 -32l-63 -107l181 -277h-108l-150 240h-119v-240h-93v500h93z" />
    <glyph glyph-name="afii10110" unicode="&#x45e;" horiz-adv-x="599" 
d="M579 500l-224 -582q-23 -60 -65 -90t-96 -30q-15 0 -27 1t-25 5l10 75q26 0 46 2.5t35.5 10t26.5 21.5t20 37l18 50h-72l-206 500h105l158 -423h43l152 423h101zM232 669q5 -23 21.5 -37t46.5 -14t46.5 14t21.5 37l70 -13q-13 -55 -51.5 -82t-86.5 -27t-86.5 27t-51.5 82
z" />
    <glyph glyph-name="afii10193" unicode="&#x45f;" horiz-adv-x="615" 
d="M159 500v-426h298v426h93v-500h-197l-9 -122h-73l-9 122h-197v500h94z" />
    <glyph glyph-name="afii10050" unicode="&#x490;" horiz-adv-x="516" 
d="M387 650l7 100h77l6 -177h-316v-573h-96v650h322z" />
    <glyph glyph-name="afii10098" unicode="&#x491;" horiz-adv-x="483" 
d="M365 500l11 88h71l6 -164h-295v-424h-93v500h300z" />
    <glyph glyph-name="endash" unicode="&#x2013;" horiz-adv-x="579" 
d="M499 303v-76h-419v76h419z" />
    <glyph glyph-name="emdash" unicode="&#x2014;" horiz-adv-x="832" 
d="M742 303v-76h-652v76h652z" />
    <glyph glyph-name="quoteleft" unicode="&#x2018;" horiz-adv-x="206" 
d="M161.002 657.996q-66.9961 -22.999 -66.9961 -66.9961q27.999 0 40.498 -15.499t12.499 -35.498q0 -17.999 -11.999 -35.998q-11.999 -17.998 -43.9971 -17.998q-32.998 0 -49.4971 23.498q-16.499 23.499 -16.499 58.4961q0 17.999 6.49902 36.998
q6.5 18.999 18.999 36.498t31.998 31.998t45.4971 22.498z" />
    <glyph glyph-name="quoteright" unicode="&#x2019;" horiz-adv-x="206" 
d="M35 472q67 23 67 67q-28 0 -40.5 15.5t-12.5 35.5q0 18 12 36t44 18q33 0 49.5 -23.5t16.5 -58.5q0 -18 -6.5 -37t-19 -36.5t-32 -32t-45.5 -22.5z" />
    <glyph glyph-name="quotesinglbase" unicode="&#x201a;" horiz-adv-x="206" 
d="M35 -67q67 23 67 67q-28 0 -40.5 15.5t-12.5 35.5q0 18 12 36t44 18q33 0 49.5 -23.5t16.5 -58.5q0 -18 -6.5 -37t-19 -36.5t-32 -32t-45.5 -22.5z" />
    <glyph glyph-name="quotedblleft" unicode="&#x201c;" horiz-adv-x="356" 
d="M311.002 657.996q-66.9961 -22.999 -66.9961 -66.9961q27.999 0 40.498 -15.499t12.499 -35.498q0 -17.999 -11.999 -35.998q-11.999 -17.998 -43.9971 -17.998q-32.998 0 -49.4971 23.498q-16.499 23.499 -16.499 58.4961q0 17.999 6.49902 36.998
q6.5 18.999 18.999 36.498t31.998 31.998t45.4971 22.498zM161.012 657.996q-66.9961 -22.999 -66.9961 -66.9961q27.998 0 40.4971 -15.499t12.499 -35.498q0 -17.999 -11.999 -35.998q-11.999 -17.998 -43.9971 -17.998q-32.998 0 -49.4971 23.498
q-16.499 23.499 -16.499 58.4961q0 17.999 6.5 36.998q6.49902 18.999 18.998 36.498q12.5 17.499 31.998 31.998q19.499 14.499 45.498 22.498z" />
    <glyph glyph-name="quotedblright" unicode="&#x201d;" horiz-adv-x="356" 
d="M35 472q67 23 67 67q-28 0 -40.5 15.5t-12.5 35.5q0 18 12 36t44 18q33 0 49.5 -23.5t16.5 -58.5q0 -18 -6.5 -37t-19 -36.5t-32 -32t-45.5 -22.5zM185 472q67 23 67 67q-28 0 -40.5 15.5t-12.5 35.5q0 18 12 36t44 18q33 0 49.5 -23.5t16.5 -58.5q0 -18 -6.5 -37
t-19 -36.5t-32 -32t-45.5 -22.5z" />
    <glyph glyph-name="quotedblbase" unicode="&#x201e;" horiz-adv-x="356" 
d="M35 -67q67 23 67 67q-28 0 -40.5 15.5t-12.5 35.5q0 18 12 36t44 18q33 0 49.5 -23.5t16.5 -58.5q0 -18 -6.5 -37t-19 -36.5t-32 -32t-45.5 -22.5zM185 -67q67 23 67 67q-28 0 -40.5 15.5t-12.5 35.5q0 18 12 36t44 18q33 0 49.5 -23.5t16.5 -58.5q0 -18 -6.5 -37
t-19 -36.5t-32 -32t-45.5 -22.5z" />
    <glyph glyph-name="dagger" unicode="&#x2020;" horiz-adv-x="373" 
d="M199 547l30 -9v-66l-8 -49l47 8h80v-50l-11 -21h-69l-47 7l7 -54v-228l-11 -96l-47 -17l-24 16v325l6 54l-46 -7h-81v47l11 24h69l47 -8l-8 49v60z" />
    <glyph glyph-name="daggerdbl" unicode="&#x2021;" horiz-adv-x="373" 
d="M199 547l30 -9v-66l-8 -49l47 8h80v-50l-11 -21h-69l-47 7l7 -54l-7 -49l47 8h75v-50l-11 -21h-64l-47 7l7 -54v-69l-11 -96l-47 -17l-24 16v166l6 54l-46 -7h-81v47l11 24h69l47 -8l-6 49l6 54l-46 -7h-76v47l11 24h64l47 -8l-8 49v60z" />
    <glyph glyph-name="bullet" unicode="&#x2022;" horiz-adv-x="254" 
d="M204 309q0 -32 -21.5 -53t-55.5 -21q-35 0 -56 21t-21 53t21.5 53t55.5 21q35 0 56 -21t21 -53z" />
    <glyph glyph-name="onedotenleader" unicode="&#x2024;" horiz-adv-x="233" 
d="M116 121q32 0 49.5 -19t17.5 -47q0 -29 -17.5 -46t-49.5 -17t-49 17t-17 46q0 28 17 47t49 19z" />
    <glyph glyph-name="twodotenleader" unicode="&#x2025;" horiz-adv-x="427" 
d="M116 121q32 0 49.5 -19t17.5 -47q0 -29 -17.5 -46t-49.5 -17t-49 17t-17 46q0 28 17 47t49 19zM310 121q32 0 49.5 -19t17.5 -47q0 -29 -17.5 -46t-49.5 -17t-49 17t-17 46q0 28 17 47t49 19z" />
    <glyph glyph-name="ellipsis" unicode="&#x2026;" horiz-adv-x="615" 
d="M116 121q32 0 49.5 -19t17.5 -47q0 -29 -17.5 -46t-49.5 -17t-49 17t-17 46q0 28 17 47t49 19zM307 121q32 0 49.5 -19t17.5 -47q0 -29 -17.5 -46t-49.5 -17t-49 17t-17 46q0 28 17 47t49 19zM498 121q32 0 49.5 -19t17.5 -47q0 -29 -17.5 -46t-49.5 -17t-49 17t-17 46
q0 28 17 47t49 19z" />
    <glyph glyph-name="perthousand" unicode="&#x2030;" horiz-adv-x="1040" 
d="M557 474l-348 -496l-57 37l349 497zM179 231q-30 0 -57.5 10.5t-47.5 29t-32 44t-12 55.5t11.5 55.5t31.5 44.5t47 29.5t59 10.5q30 0 57.5 -11t47.5 -30t32 -44.5t12 -54.5q0 -30 -12 -55.5t-32.5 -44t-47.5 -29t-57 -10.5zM179 294q32 0 55 20t23 56q0 35 -21.5 56
t-56.5 21q-37 0 -58 -21.5t-21 -55.5t22 -55t57 -21zM538 -10q-30 0 -57.5 10.5t-47.5 29t-32 44t-12 55.5t11.5 55.5t31.5 44.5t47 29.5t59 10.5q30 0 57.5 -11t47.5 -30t32 -44.5t12 -54.5q0 -30 -12 -55.5t-32.5 -44t-47.5 -29t-57 -10.5zM538 53q32 0 55 20t23 56
q0 35 -21.5 56t-56.5 21q-37 0 -58 -21.5t-21 -55.5t22 -55t57 -21zM861 -10q-30 0 -57.5 10.5t-47.5 29t-32 44t-12 55.5t11.5 55.5t31.5 44.5t47 29.5t59 10.5q30 0 57.5 -11t47.5 -30t32 -44.5t12 -54.5q0 -30 -12 -55.5t-32.5 -44t-47.5 -29t-57 -10.5zM861 53
q32 0 55 20t23 56q0 35 -21.5 56t-56.5 21q-37 0 -58 -21.5t-21 -55.5t22 -55t57 -21z" />
    <glyph glyph-name="guilsinglleft" unicode="&#x2039;" horiz-adv-x="332" 
d="M297 385l-152 -129l152 -135l-38 -58l-219 171v38l219 171z" />
    <glyph glyph-name="guilsinglright" unicode="&#x203a;" horiz-adv-x="332" 
d="M292 272v-38l-219 -171l-38 58l152 129l-152 135l38 58z" />
    <glyph glyph-name="exclamdbl" unicode="&#x203c;" horiz-adv-x="411" 
d="M160 679l-13 -509h-69l-13 509h95zM112 121q32 0 49.5 -19t17.5 -47q0 -29 -17.5 -46t-49.5 -17t-49 17t-17 46q0 28 17 47t49 19zM346 679l-13 -509h-69l-13 509h95zM298 121q32 0 49.5 -19t17.5 -47q0 -29 -17.5 -46t-49.5 -17t-49 17t-17 46q0 28 17 47t49 19z" />
    <glyph glyph-name="fraction" unicode="&#x2044;" horiz-adv-x="293" 
d="M358 623l-358 -644l-62 31l355 643z" />
    <glyph glyph-name="zerosuperior" unicode="&#x2070;" horiz-adv-x="448" 
d="M103 559q0 -58 32 -94t89 -36t88.5 35.5t31.5 94.5q0 60 -32 95.5t-88 35.5t-88.5 -36.5t-32.5 -94.5zM418 559q0 -37 -12.5 -72t-37 -62t-61 -43t-83.5 -16t-83.5 16t-61 43t-37 62t-12.5 72t13 72.5t38 62.5t61 43.5t82 16.5t82 -16.5t61 -43.5t38 -62.5t13 -72.5z" />
    <glyph glyph-name="foursuperior" unicode="&#x2074;" horiz-adv-x="381" 
d="M311 745v-244h40v-62h-40v-64h-71v64h-211l-9 51l232 260zM112 501h128v144z" />
    <glyph glyph-name="fivesuperior" unicode="&#x2075;" horiz-adv-x="343" 
d="M293 745v-63h-177l-3 -75q30 9 70 9q28 0 52.5 -7.5t43 -22.5t29 -37.5t10.5 -53.5q0 -33 -12.5 -57t-33.5 -40t-49 -24t-59 -8q-25 0 -44.5 2t-36.5 6t-32 11t-30 18l32 58q28 -20 51.5 -28t55.5 -8q42 0 65.5 18t23.5 52q0 29 -20 46t-62 17q-27 0 -46 -3t-44 -11
l-30 7l7 194h239z" />
    <glyph glyph-name="sixsuperior" unicode="&#x2076;" horiz-adv-x="362" 
d="M99 537q0 -49 21 -79.5t63 -30.5t62 18t20 48q0 68 -70 68q-29 0 -51.5 -6t-44.5 -18zM297 694q-54 -1 -89.5 -7.5t-57 -19.5t-32.5 -32.5t-17 -46.5q21 16 45.5 24.5t56.5 8.5q26 0 50 -7t43 -22.5t30 -40t11 -58.5q0 -33 -12 -57t-33 -39.5t-49 -23t-60 -7.5
q-38 0 -67 13.5t-48 38t-28.5 58t-9.5 73.5q0 105 67.5 155t195.5 50z" />
    <glyph glyph-name="sevensuperior" unicode="&#x2077;" horiz-adv-x="330" 
d="M305 745v-46l-165 -324h-77l161 308h-199v62h280z" />
    <glyph glyph-name="eightsuperior" unicode="&#x2078;" horiz-adv-x="380" 
d="M156 554q-29 -5 -41.5 -21.5t-12.5 -44.5q0 -33 25 -48t63 -15q36 0 62 15.5t26 47.5q0 23 -11 36t-29 19.5t-39.5 8t-42.5 2.5zM217 607q20 6 28 16.5t8 29.5q0 24 -17 33.5t-45 9.5t-46 -8.5t-18 -33.5q0 -27 24.5 -36.5t65.5 -10.5zM91 583q-19 13 -27 31t-8 39
q0 27 11.5 46t30 31t43 18t50.5 6q25 0 49 -6t43 -18t30 -30.5t11 -44.5q0 -20 -9 -38.5t-27 -29.5q34 -15 48 -39.5t14 -56.5q0 -33 -13.5 -57t-36 -39t-51 -22t-59.5 -7q-35 0 -64 7.5t-50.5 22.5t-33.5 38t-12 55q0 66 61 94z" />
    <glyph glyph-name="ninesuperior" unicode="&#x2079;" horiz-adv-x="362" 
d="M268 583q0 52 -21 81t-63 29q-43 0 -62.5 -18t-19.5 -48q0 -34 21 -51t56 -17q25 0 46 6t43 18zM71 426q37 0 70 6t59.5 18.5t43.5 32t22 45.5q-41 -29 -95 -29q-26 0 -51 7.5t-44.5 23t-31.5 39.5t-12 57t12 57t32.5 40t48 23.5t59.5 7.5q76 0 114.5 -50t38.5 -130
q0 -105 -69.5 -156.5t-191.5 -51.5z" />
    <glyph glyph-name="parenleftsuperior" unicode="&#x207d;" horiz-adv-x="156" 
d="M145 767q-22 -42 -34 -96.5t-12 -107.5t12 -105t35 -95l-52 -26q-63 98 -63 226q0 63 16 122t47 107z" />
    <glyph glyph-name="parenrightsuperior" unicode="&#x207e;" horiz-adv-x="156" 
d="M62 792q31 -48 47.5 -106t16.5 -122q0 -63 -16.5 -121t-47.5 -106l-51 25q22 42 34 95t12 107q0 52 -12 105.5t-35 96.5z" />
    <glyph glyph-name="zeroinferior" unicode="&#x2080;" horiz-adv-x="448" 
d="M103 115q0 -58 32 -94t89 -36t88.5 35.5t31.5 94.5q0 60 -32 95.5t-88 35.5t-88.5 -36.5t-32.5 -94.5zM418 115q0 -37 -12.5 -72t-37 -62t-61 -43t-83.5 -16t-83.5 16t-61 43t-37 62t-12.5 72t13 72.5t38 62.5t61 43.5t82 16.5t82 -16.5t61 -43.5t38 -62.5t13 -72.5z" />
    <glyph glyph-name="oneinferior" unicode="&#x2081;" horiz-adv-x="226" 
d="M137 304l39 -5v-368h-71v284l-71 -19l-17 43z" />
    <glyph glyph-name="twoinferior" unicode="&#x2082;" horiz-adv-x="332" 
d="M296 -69h-271v61l157 119q26 19 37.5 37t11.5 41q0 26 -17.5 41.5t-54.5 15.5q-30 0 -54 -10.5t-48 -33.5l-34 51q29 29 62.5 43t78.5 14q63 0 100.5 -32.5t37.5 -87.5q0 -33 -14 -62t-42 -49l-117 -86h167v-62z" />
    <glyph glyph-name="threeinferior" unicode="&#x2083;" horiz-adv-x="357" 
d="M262 138q60 -27 60 -90q0 -33 -13 -56.5t-35 -39t-50.5 -23t-59.5 -7.5q-25 0 -44 2t-35 7t-30.5 13t-29.5 20l24 55q29 -22 54 -30.5t57 -8.5q39 0 66 17t27 51q0 29 -16.5 40.5t-54.5 11.5h-83v58h74q29 0 44.5 9.5t15.5 35.5q0 47 -67 47q-54 0 -95 -31l-33 47
q30 25 61 34.5t73 9.5q22 0 44.5 -6t41 -18t30.5 -30.5t12 -43.5q0 -27 -9 -44.5t-29 -29.5z" />
    <glyph glyph-name="fourinferior" unicode="&#x2084;" horiz-adv-x="381" 
d="M311 301v-244h40v-62h-40v-64h-71v64h-211l-9 51l232 260zM112 57h128v144z" />
    <glyph glyph-name="fiveinferior" unicode="&#x2085;" horiz-adv-x="343" 
d="M293 301v-63h-177l-3 -75q30 9 70 9q28 0 52.5 -7.5t43 -22.5t29 -37.5t10.5 -53.5q0 -33 -12.5 -57t-33.5 -40t-49 -24t-59 -8q-25 0 -44.5 2t-36.5 6t-32 11t-30 18l32 58q28 -20 51.5 -28t55.5 -8q42 0 65.5 18t23.5 52q0 29 -20 46t-62 17q-27 0 -46 -3t-44 -11
l-30 7l7 194h239z" />
    <glyph glyph-name="sixinferior" unicode="&#x2086;" horiz-adv-x="362" 
d="M99 93q0 -49 21 -79.5t63 -30.5t62 18t20 48q0 68 -70 68q-29 0 -51.5 -6t-44.5 -18zM297 250q-54 -1 -89.5 -7.5t-57 -19.5t-32.5 -32.5t-17 -46.5q21 16 45.5 24.5t56.5 8.5q26 0 50 -7t43 -22.5t30 -40t11 -58.5q0 -33 -12 -57t-33 -39.5t-49 -23t-60 -7.5
q-38 0 -67 13.5t-48 38t-28.5 58t-9.5 73.5q0 105 67.5 155t195.5 50z" />
    <glyph glyph-name="seveninferior" unicode="&#x2087;" horiz-adv-x="330" 
d="M305 301v-46l-165 -324h-77l161 308h-199v62h280z" />
    <glyph glyph-name="eightinferior" unicode="&#x2088;" horiz-adv-x="380" 
d="M156 110q-29 -5 -41.5 -21.5t-12.5 -44.5q0 -33 25 -48t63 -15q36 0 62 15.5t26 47.5q0 23 -11 36t-29 19.5t-39.5 8t-42.5 2.5zM217 163q20 6 28 16.5t8 29.5q0 24 -17 33.5t-45 9.5t-46 -8.5t-18 -33.5q0 -27 24.5 -36.5t65.5 -10.5zM91 139q-19 13 -27 31t-8 39
q0 27 11.5 46t30 31t43 18t50.5 6q25 0 49 -6t43 -18t30 -30.5t11 -44.5q0 -20 -9 -38.5t-27 -29.5q34 -15 48 -39.5t14 -56.5q0 -33 -13.5 -57t-36 -39t-51 -22t-59.5 -7q-35 0 -64 7.5t-50.5 22.5t-33.5 38t-12 55q0 66 61 94z" />
    <glyph glyph-name="nineinferior" unicode="&#x2089;" horiz-adv-x="362" 
d="M268 139q0 52 -21 81t-63 29q-43 0 -62.5 -18t-19.5 -48q0 -34 21 -51t56 -17q25 0 46 6t43 18zM71 -18q37 0 70 6t59.5 18.5t43.5 32t22 45.5q-41 -29 -95 -29q-26 0 -51 7.5t-44.5 23t-31.5 39.5t-12 57t12 57t32.5 40t48 23.5t59.5 7.5q76 0 114.5 -50t38.5 -130
q0 -105 -69.5 -156.5t-191.5 -51.5z" />
    <glyph glyph-name="parenleftinferior" unicode="&#x208d;" horiz-adv-x="156" 
d="M145 323q-22 -42 -34 -96.5t-12 -107.5t12 -105t35 -95l-52 -26q-63 98 -63 226q0 63 16 122t47 107z" />
    <glyph glyph-name="parenrightinferior" unicode="&#x208e;" horiz-adv-x="156" 
d="M62 348q31 -48 47.5 -106t16.5 -122q0 -63 -16.5 -121t-47.5 -106l-51 25q22 42 34 95t12 107q0 52 -12 105.5t-35 96.5z" />
    <glyph glyph-name="Euro" unicode="&#x20ac;" horiz-adv-x="649" 
d="M452 286l-4 -69h-274q12 -38 33.5 -66.5t50.5 -48t64.5 -29t75.5 -9.5q57 0 102.5 14t93.5 46l27 -73q-49 -35 -105.5 -49.5t-126.5 -14.5q-52 0 -101.5 13.5t-90.5 42t-71 72t-43 102.5h-58l4 69h423zM91 395q15 49 45 88.5t70.5 67.5t90 42.5t102.5 14.5q67 0 116 -16
t96 -50l-35 -67q-44 32 -86 46.5t-91 14.5q-81 0 -137.5 -37.5t-81.5 -103.5h277l-4 -69h-419l4 69h53z" />
    <glyph glyph-name="afii61352" unicode="&#x2116;" horiz-adv-x="1024" 
d="M964 198v-66h-242v66h242zM984 385q0 -29 -10.5 -53.5t-29.5 -42.5t-45 -28t-56 -10t-56 10t-45 28t-29.5 42.5t-10.5 53.5t10.5 53.5t29.5 42.5t45 28t56 10t56 -10t45 -28t29.5 -42.5t10.5 -53.5zM164 650l397 -530l-3 169v361h91v-650h-102l-398 531l6 -196v-335h-90
v650h99zM773 385q0 -35 19 -53t51 -18t51 18t19 53t-19 53t-51 18t-51 -18t-19 -53z" />
    <glyph glyph-name="trademark" unicode="&#x2122;" horiz-adv-x="620" 
d="M252 650v-49h-81v-216h-60v216h-81v49h222zM343 650l83 -115l83 115h61v-265h-59v184l-77 -106h-22l-75 106v-184h-57v265h63z" />
    <glyph glyph-name="Omega" unicode="&#x2126;" horiz-adv-x="770" 
d="M448 60q94 50 137.5 117.5t43.5 155.5q0 58 -17.5 104.5t-49 79t-77 50t-100.5 17.5q-56 0 -101 -17.5t-76.5 -50t-49 -79t-17.5 -104.5q0 -88 43.5 -155.5t137.5 -117.5v-60h-264v73h116q-66 48 -97.5 116.5t-31.5 143.5q0 71 24 131.5t68.5 104.5t107.5 69t140 25
t140 -25t107.5 -69t68.5 -104.5t24 -131.5q0 -75 -31.5 -143.5t-97.5 -116.5h116v-73h-264v60z" />
    <glyph glyph-name="estimated" unicode="&#x212e;" horiz-adv-x="627" 
d="M134 242q2 -57 16.5 -98.5t35.5 -70.5q35 -21 73.5 -28.5t76.5 -7.5q57 0 108 15.5t98 43.5l21 -49q-49 -31 -107.5 -44t-125.5 -13q-68 0 -121.5 18t-91 52t-57.5 82t-20 107q0 58 22.5 106.5t60.5 82.5t89.5 53t110.5 19q60 0 108 -15.5t82 -43t52.5 -65.5t18.5 -83
q0 -16 -2 -32t-7 -29h-441zM495 284q-1 42 -7.5 77.5t-28.5 75.5q-32 18 -65.5 25t-80.5 7q-36 0 -67.5 -8t-57.5 -27q-24 -30 -37.5 -66.5t-16.5 -83.5h361z" />
    <glyph glyph-name="arrowleft" unicode="&#x2190;" horiz-adv-x="778" 
d="M728 239h-550l87 -88l-55 -36l-165 148v22l165 148l55 -36l-87 -88h550v-70z" />
    <glyph glyph-name="arrowup" unicode="&#x2191;" horiz-adv-x="454" 
d="M187 0v512l-98 -84l-39 52l166 170h22l166 -170l-39 -52l-98 84v-512h-80z" />
    <glyph glyph-name="arrowright" unicode="&#x2192;" horiz-adv-x="778" 
d="M45 309h550l-87 88l55 36l165 -148v-22l-165 -148l-55 36l87 88h-550v70z" />
    <glyph glyph-name="arrowdown" unicode="&#x2193;" horiz-adv-x="454" 
d="M267 650v-535l98 84l39 -52l-166 -170h-22l-166 170l39 52l98 -84v535h80z" />
    <glyph glyph-name="partialdiff" unicode="&#x2202;" horiz-adv-x="623" 
d="M163 692q47 -2 96.5 -8t96.5 -20.5t88 -38t72 -59t49 -85t18 -115.5q0 -91 -26 -170.5t-83 -132.5q-38 -34 -89 -53.5t-118 -19.5q-50 0 -91.5 15.5t-71.5 44t-47 68.5t-17 90q0 54 19.5 100t55.5 79.5t86 53t112 19.5q60 0 110 -20.5t73 -64.5h7q-3 50 -25 93.5
t-65.5 75.5t-111 50.5t-160.5 18.5zM277 64q39 0 74.5 13t62.5 36.5t43 57.5t16 76q0 61 -43 100t-116 39q-85 0 -134 -43.5t-49 -133.5q0 -64 37.5 -104.5t108.5 -40.5z" />
    <glyph glyph-name="Delta" unicode="&#x2206;" horiz-adv-x="660" 
d="M388 650l237 -600v-50h-590v50l250 600h103zM142 77h376l-180 478h-11z" />
    <glyph glyph-name="product" unicode="&#x220f;" horiz-adv-x="520" 
d="M455 664v-724h-94v647h-202v-647h-94v724h390z" />
    <glyph glyph-name="summation" unicode="&#x2211;" horiz-adv-x="528" 
d="M484 650v-77h-295l212 -211v-38l-234 -245h331v-79h-443v77l249 265l-239 239v69h419z" />
    <glyph glyph-name="minus" unicode="&#x2212;" horiz-adv-x="381" 
d="M341 367v-76h-301v76h301z" />
    <glyph glyph-name="radical" unicode="&#x221a;" horiz-adv-x="509" 
d="M116 500l114 -416h4l140 656h177l-10 -76h-91l-147 -664h-137l-151 500h101z" />
    <glyph glyph-name="infinity" unicode="&#x221e;" horiz-adv-x="623" 
d="M274 323q-19 32 -43 54t-56 22q-78 0 -78 -77q0 -33 17.5 -54t51.5 -21q35 0 60 17.5t48 58.5zM307 265q-26 -41 -63 -64t-78 -23q-65 0 -103 40t-38 103q0 37 12.5 64.5t32.5 46t45.5 27.5t51.5 9q50 0 83.5 -22t65.5 -65q26 41 63 64t78 23q65 0 103 -40t38 -103
q0 -37 -12.5 -64.5t-32.5 -46t-45.5 -27.5t-51.5 -9q-50 0 -83.5 22t-65.5 65zM349 323q19 -32 43 -54t56 -22q78 0 78 77q0 33 -17.5 54t-51.5 21q-35 0 -60 -17.5t-48 -58.5z" />
    <glyph glyph-name="integral" unicode="&#x222b;" horiz-adv-x="223" 
d="M262 672q-29 -2 -49 -6.5t-32 -15.5t-17.5 -29t-5.5 -47v-523q0 -101 -46.5 -146.5t-143.5 -47.5l-7 79q29 2 49 6.5t32 15.5t17.5 29t5.5 47v523q0 101 46.5 146.5t143.5 47.5z" />
    <glyph glyph-name="approxequal" unicode="&#x2248;" horiz-adv-x="437" 
d="M40 278q22 24 49 36t63 12q25 0 40.5 -6t28.5 -13.5t26 -13.5t33 -6q21 0 35.5 7t31.5 24l41 -50q-23 -29 -48 -42.5t-59 -13.5q-23 0 -40 6.5t-32 14t-30 14t-33 6.5q-26 0 -44 -9.5t-34 -29.5zM40 416q22 24 49 36t63 12q25 0 40.5 -6t28.5 -13.5t26 -13.5t33 -6
q21 0 35.5 7t31.5 24l41 -50q-23 -29 -48 -42.5t-59 -13.5q-23 0 -40 6.5t-32 14t-30 14t-33 6.5q-26 0 -44 -9.5t-34 -29.5z" />
    <glyph glyph-name="notequal" unicode="&#x2260;" horiz-adv-x="389" 
d="M186 440l17 65l65 -17l-13 -48h94v-74h-113l-17 -68h130v-74h-149l-18 -70l-65 17l13 53h-90v74h109l18 68h-127v74h146z" />
    <glyph glyph-name="lessequal" unicode="&#x2264;" horiz-adv-x="337" 
d="M292 486l-160 -123l170 -120l-58 -50l-209 141v38l199 161zM252 124l-58 -49l-159 111l20 69z" />
    <glyph glyph-name="greaterequal" unicode="&#x2265;" horiz-adv-x="337" 
d="M302 372v-38l-209 -141l-58 50l170 120l-160 123l58 47zM302 186l-159 -111l-58 49l197 131z" />
    <glyph glyph-name="triagup" unicode="&#x25b2;" horiz-adv-x="664" 
d="M332 417l267 -243v-19h-534v18z" />
    <glyph glyph-name="triagrt" unicode="&#x25ba;" horiz-adv-x="367" 
d="M327 249l-243 -257h-19v514h18z" />
    <glyph glyph-name="triagdn" unicode="&#x25bc;" horiz-adv-x="664" 
d="M332 95l-267 243v19h534v-18z" />
    <glyph glyph-name="triaglf" unicode="&#x25c4;" horiz-adv-x="367" 
d="M40 249l243 257h19v-514h-18z" />
    <glyph glyph-name="lozenge" unicode="&#x25ca;" horiz-adv-x="563" 
d="M232 -114l-192 380v44l193 380h98l192 -380v-44l-193 -380h-98zM127 292l154 -313h4l150 304l-153 314h-4z" />
    <glyph glyph-name="Acute" horiz-adv-x="264" 
d="M143 881l78 -47l-98 -136h-69z" />
    <glyph glyph-name="Breve" horiz-adv-x="383" 
d="M95 829q14 -29 39.5 -44t56.5 -15q68 0 97 59l60 -27q-17 -53 -58.5 -79t-98.5 -26q-56 0 -98.5 27t-57.5 78z" />
    <glyph glyph-name="Caron" horiz-adv-x="360" 
d="M180 778l132 86l21 -54l-141 -119h-23l-142 119l21 54z" />
    <glyph glyph-name="Cedilla" horiz-adv-x="269" 
d="M153 7l-7 -55q35 0 54 -18.5t19 -51.5q0 -28 -14.5 -49.5t-37 -37t-50 -25.5t-52.5 -14l-13 61q41 7 68 21.5t27 41.5t-36 27h-33l4 96z" />
    <glyph glyph-name="Circumflex" horiz-adv-x="360" 
d="M180 777l-132 -86l-21 54l141 119h23l142 -119l-21 -54z" />
    <glyph glyph-name="Dieresis" horiz-adv-x="454" 
d="M117 828q31 0 47.5 -17t16.5 -44q0 -26 -16.5 -43t-47.5 -17q-29 0 -45.5 17t-16.5 43q0 27 16.5 44t45.5 17zM336 828q29 0 46 -17t17 -44q0 -26 -17 -43t-46 -17t-46 17t-17 43q0 27 17 44t46 17z" />
    <glyph glyph-name="Dotaccent" horiz-adv-x="230" 
d="M116 121q32 0 49.5 -19t17.5 -47q0 -29 -17.5 -46t-49.5 -17t-49 17t-17 46q0 28 17 47t49 19z" />
    <glyph glyph-name="Euro.sc" horiz-adv-x="582" 
d="M12 259h361l-5 -68h-224q23 -61 76 -92.5t122 -31.5q27 0 49 2.5t42 8.5t40 15.5t43 23.5l26 -71q-46 -32 -95 -44t-114 -12q-47 0 -92 12.5t-83 37.5t-66.5 62.5t-41.5 88.5h-43zM18 368h37q15 44 43 79t65.5 59t83.5 36.5t96 12.5q63 0 108.5 -15t90.5 -47l-43 -65
q-68 50 -160 50q-73 0 -121.5 -29t-70.5 -81h232l-5 -68h-361z" />
    <glyph glyph-name="Euro.tab.sc" 
d="M32 259h361l-5 -68h-224q23 -61 76 -92.5t122 -31.5q27 0 49 2.5t42 8.5t40 15.5t43 23.5l26 -71q-46 -32 -95 -44t-114 -12q-47 0 -92 12.5t-83 37.5t-66.5 62.5t-41.5 88.5h-43zM38 368h37q15 44 43 79t65.5 59t83.5 36.5t96 12.5q63 0 108.5 -15t90.5 -47l-43 -65
q-68 50 -160 50q-73 0 -121.5 -29t-70.5 -81h232l-5 -68h-361z" />
    <glyph glyph-name="Euro.taboldstyle" 
d="M37 229h393v-66h-236q23 -46 67 -71.5t98 -25.5q25 0 46 2.5t40.5 7.5t38.5 14t40 21l29 -73q-48 -27 -95 -37.5t-105 -10.5q-100 0 -167.5 47.5t-92.5 125.5h-56v66zM37 333h57q14 40 40.5 73t62 56t79 35.5t91.5 12.5q60 0 102.5 -9t80.5 -29l-36 -73q-33 19 -68 27.5
t-73 8.5q-69 0 -116 -25.5t-68 -76.5h241v-66h-393v66z" />
    <glyph glyph-name="Eurooldstyle" horiz-adv-x="576" 
d="M30 229h393v-66h-236q23 -46 67 -71.5t98 -25.5q25 0 46 2.5t40.5 7.5t38.5 14t40 21l29 -73q-48 -27 -95 -37.5t-105 -10.5q-100 0 -167.5 47.5t-92.5 125.5h-56v66zM30 333h57q14 40 40.5 73t62 56t79 35.5t91.5 12.5q60 0 102.5 -9t80.5 -29l-36 -73q-33 19 -68 27.5
t-73 8.5q-69 0 -116 -25.5t-68 -76.5h241v-66h-393v66z" />
    <glyph glyph-name="Grave" horiz-adv-x="264" 
d="M211 698h-69l-98 136l78 47z" />
    <glyph glyph-name="Hungarumlaut" horiz-adv-x="375" 
d="M106 887l82 -30l-69 -159h-64zM244 877l76 -47l-93 -132h-67z" />
    <glyph glyph-name="Imacron" horiz-adv-x="225" 
d="M160 650v-650h-95v650h95zM276 787v-73h-326v73h326z" />
    <glyph glyph-name="Macron" horiz-adv-x="418" 
d="M372 784v-73h-326v73h326z" />
    <glyph glyph-name="Ogonek" horiz-adv-x="218" 
d="M165 0q-32 -17 -43 -34.5t-11 -37.5q0 -17 10.5 -30.5t38.5 -13.5q7 0 14.5 1t16.5 4l-16 -65q-10 -2 -19.5 -3t-17.5 -1q-48 0 -76 24.5t-28 62.5q0 15 5.5 32t17 32t29 26t42.5 15z" />
    <glyph glyph-name="Ring" horiz-adv-x="331" 
d="M162 674q-52 0 -84.5 31.5t-32.5 80.5q0 23 9 43.5t24.5 35.5t37 23.5t46.5 8.5t46.5 -8.5t37 -23.5t24.5 -35.5t9 -43.5q0 -50 -33 -81t-84 -31zM218 786q0 24 -16 39.5t-40 15.5t-40.5 -15.5t-16.5 -39.5t16.5 -40t40.5 -16t40 16t16 40z" />
    <glyph glyph-name="Tilde" horiz-adv-x="422" 
d="M30 765q22 22 52.5 33.5t64.5 11.5q24 0 41 -6t32 -12.5t29.5 -12.5t34.5 -6q21 0 36 6t32 23l41 -48q-43 -55 -108 -55q-23 0 -41 6t-35 13.5t-33.5 13.5t-34.5 6q-49 0 -83 -39z" />
    <glyph glyph-name="a.alt1" horiz-adv-x="602" 
d="M79 466q56 23 103.5 33.5t109.5 10.5q111 0 163.5 -41t52.5 -133v-209q0 -36 12 -48.5t50 -12.5v-66q-17 -5 -31.5 -7.5t-34.5 -2.5q-31 0 -49 22t-21 60q-69 -82 -206 -82q-88 0 -133.5 39.5t-45.5 107.5q0 40 16 68t43 46.5t63 28.5t75 15q38 5 79.5 7.5t92.5 3.5v27
q0 52 -28.5 76t-101.5 24q-94 0 -189 -41zM418 238q-50 -1 -90 -3t-74 -8q-54 -9 -82.5 -27.5t-28.5 -57.5q0 -41 25.5 -58.5t72.5 -17.5q50 0 92.5 15t84.5 51v106z" />
    <glyph glyph-name="a.sc" horiz-adv-x="642" 
d="M375 560l242 -560h-94l-71 162h-266l-69 -162h-92l244 560h106zM217 239h204l-98 244h-6z" />
    <glyph glyph-name="aacute.alt1" horiz-adv-x="602" 
d="M79 466q56 23 103.5 33.5t109.5 10.5q111 0 163.5 -41t52.5 -133v-209q0 -36 12 -48.5t50 -12.5v-66q-17 -5 -31.5 -7.5t-34.5 -2.5q-31 0 -49 22t-21 60q-69 -82 -206 -82q-88 0 -133.5 39.5t-45.5 107.5q0 40 16 68t43 46.5t63 28.5t75 15q38 5 79.5 7.5t92.5 3.5v27
q0 52 -28.5 76t-101.5 24q-94 0 -189 -41zM418 238q-50 -1 -90 -3t-74 -8q-54 -9 -82.5 -27.5t-28.5 -57.5q0 -41 25.5 -58.5t72.5 -17.5q50 0 92.5 15t84.5 51v106zM344 746l73 -47l-103 -136h-64z" />
    <glyph glyph-name="aacute.sc" horiz-adv-x="642" 
d="M375 560l242 -560h-94l-71 162h-266l-69 -162h-92l244 560h106zM217 239h204l-98 244h-6zM379 802l78 -47l-98 -136h-69z" />
    <glyph glyph-name="abreve.alt1" horiz-adv-x="602" 
d="M79 466q56 23 103.5 33.5t109.5 10.5q111 0 163.5 -41t52.5 -133v-209q0 -36 12 -48.5t50 -12.5v-66q-17 -5 -31.5 -7.5t-34.5 -2.5q-31 0 -49 22t-21 60q-69 -82 -206 -82q-88 0 -133.5 39.5t-45.5 107.5q0 40 16 68t43 46.5t63 28.5t75 15q38 5 79.5 7.5t92.5 3.5v27
q0 52 -28.5 76t-101.5 24q-94 0 -189 -41zM418 238q-50 -1 -90 -3t-74 -8q-54 -9 -82.5 -27.5t-28.5 -57.5q0 -41 25.5 -58.5t72.5 -17.5q50 0 92.5 15t84.5 51v106zM221 679q5 -23 21.5 -37t46.5 -14t46.5 14t21.5 37l70 -13q-13 -55 -51.5 -82t-86.5 -27t-86.5 27
t-51.5 82z" />
    <glyph glyph-name="abreve.sc" horiz-adv-x="642" 
d="M375 560l242 -560h-94l-71 162h-266l-69 -162h-92l244 560h106zM217 239h204l-98 244h-6zM225 750q14 -29 39.5 -44t56.5 -15q68 0 97 59l60 -27q-17 -53 -58.5 -79t-98.5 -26q-56 0 -98.5 27t-57.5 78z" />
    <glyph glyph-name="acircumflex.alt1" horiz-adv-x="602" 
d="M79 466q56 23 103.5 33.5t109.5 10.5q111 0 163.5 -41t52.5 -133v-209q0 -36 12 -48.5t50 -12.5v-66q-17 -5 -31.5 -7.5t-34.5 -2.5q-31 0 -49 22t-21 60q-69 -82 -206 -82q-88 0 -133.5 39.5t-45.5 107.5q0 40 16 68t43 46.5t63 28.5t75 15q38 5 79.5 7.5t92.5 3.5v27
q0 52 -28.5 76t-101.5 24q-94 0 -189 -41zM418 238q-50 -1 -90 -3t-74 -8q-54 -9 -82.5 -27.5t-28.5 -57.5q0 -41 25.5 -58.5t72.5 -17.5q50 0 92.5 15t84.5 51v106zM289 622l-112 -77l-23 48l123 125h23l124 -125l-23 -48z" />
    <glyph glyph-name="acircumflex.sc" horiz-adv-x="642" 
d="M375 560l242 -560h-94l-71 162h-266l-69 -162h-92l244 560h106zM217 239h204l-98 244h-6zM321 678l-132 -86l-21 54l141 119h23l142 -119l-21 -54z" />
    <glyph glyph-name="adieresis.alt1" horiz-adv-x="602" 
d="M79 466q56 23 103.5 33.5t109.5 10.5q111 0 163.5 -41t52.5 -133v-209q0 -36 12 -48.5t50 -12.5v-66q-17 -5 -31.5 -7.5t-34.5 -2.5q-31 0 -49 22t-21 60q-69 -82 -206 -82q-88 0 -133.5 39.5t-45.5 107.5q0 40 16 68t43 46.5t63 28.5t75 15q38 5 79.5 7.5t92.5 3.5v27
q0 52 -28.5 76t-101.5 24q-94 0 -189 -41zM418 238q-50 -1 -90 -3t-74 -8q-54 -9 -82.5 -27.5t-28.5 -57.5q0 -41 25.5 -58.5t72.5 -17.5q50 0 92.5 15t84.5 51v106zM186 681q29 0 45.5 -17t16.5 -43q0 -25 -16.5 -41.5t-45.5 -16.5q-28 0 -44.5 16.5t-16.5 41.5
q0 26 16.5 43t44.5 17zM409 681q29 0 45.5 -17t16.5 -43q0 -25 -16.5 -41.5t-45.5 -16.5q-28 0 -44.5 16.5t-16.5 41.5q0 26 16.5 43t44.5 17z" />
    <glyph glyph-name="adieresis.sc" horiz-adv-x="642" 
d="M375 560l242 -560h-94l-71 162h-266l-69 -162h-92l244 560h106zM217 239h204l-98 244h-6zM211 749q31 0 47.5 -17t16.5 -44q0 -26 -16.5 -43t-47.5 -17q-29 0 -45.5 17t-16.5 43q0 27 16.5 44t45.5 17zM430 749q29 0 46 -17t17 -44q0 -26 -17 -43t-46 -17t-46 17t-17 43
q0 27 17 44t46 17z" />
    <glyph glyph-name="ae.alt1" horiz-adv-x="945" 
d="M79 466q51 23 101 33.5t112 10.5q78 0 124 -19t66 -63q36 39 82 60.5t109 21.5q60 0 104 -15.5t73 -43t43 -65.5t14 -83q0 -21 -2 -38.5t-7 -37.5h-393q3 -40 18 -70t39 -49.5t56 -29.5t68 -10q28 0 50 1.5t42 5.5t39.5 11.5t42.5 19.5l28 -77q-24 -12 -47 -19.5t-48 -12
t-52.5 -6t-60.5 -1.5q-75 0 -125 22t-85 64q-54 -49 -115.5 -67.5t-130.5 -18.5q-88 0 -131.5 40t-43.5 111q0 37 14 62.5t37.5 43t53.5 28t63 16.5q46 8 95.5 11.5t104.5 3.5v27q0 52 -28 76t-101 24q-95 0 -189 -41zM417 238q-48 0 -88.5 -3t-75.5 -8q-21 -3 -41 -8.5
t-35 -15.5t-24 -24.5t-9 -36.5q0 -39 23.5 -57t73.5 -18t92 13t84 45v113zM818 299q-2 72 -39 104t-116 32q-30 0 -58 -8.5t-49.5 -25.5t-35.5 -42.5t-17 -59.5h315z" />
    <glyph glyph-name="ae.sc" horiz-adv-x="867" 
d="M816 560v-74h-275v-155h251v-74h-251v-182h296v-75h-387v109h-264l-69 -109h-107l357 560h449zM225 185h225v301h-36z" />
    <glyph glyph-name="afii10055" horiz-adv-x="225" 
d="M160 650v-650h-95v650h95z" />
    <glyph glyph-name="afii10065.77.liga" horiz-adv-x="1138" 
d="M1073 500v-500h-92v426h-204v-80q0 -61 -3 -107.5t-11 -83t-21 -64t-32 -50.5q-20 -24 -56 -36.5t-74 -12.5q-60 0 -94.5 19t-48.5 59q-21 -23 -43 -38t-47.5 -24.5t-55.5 -13.5t-68 -4q-88 0 -133.5 41t-45.5 112q0 34 10.5 62t36.5 57q34 10 68.5 18t73.5 13t83 8t97 4
v28q0 52 -28.5 76t-101.5 24q-94 0 -189 -41l-20 74q55 24 103 34t110 10q111 0 163.5 -41t52.5 -133v-190q0 -36 19.5 -57t55.5 -21q38 0 60.5 18.5t33.5 51.5q12 38 14.5 93.5t2.5 124.5v144h384zM413 238q-87 -2 -146.5 -9.5t-108.5 -20.5q-20 -24 -20 -60
q0 -41 25.5 -61.5t72.5 -20.5q50 0 92.5 14t84.5 52v106z" />
    <glyph glyph-name="afii10065.77.liga.alt1" horiz-adv-x="1138" 
d="M1073 500v-500h-92v426h-204v-80q0 -61 -3 -107.5t-11 -83t-21 -64t-32 -50.5q-20 -24 -56 -36.5t-74 -12.5q-60 0 -94.5 19t-48.5 59q-21 -23 -43 -38t-47.5 -24.5t-55.5 -13.5t-68 -4q-88 0 -133.5 39t-45.5 110q0 41 16.5 68.5t44 45.5t63.5 27.5t76 14.5q37 5 78.5 7
t90.5 3v28q0 52 -28.5 76t-101.5 24q-94 0 -189 -41l-20 74q55 24 103 34t110 10q111 0 163.5 -41t52.5 -133v-190q0 -36 19.5 -57t55.5 -21q38 0 60.5 18.5t33.5 51.5q12 38 14.5 93.5t2.5 124.5v144h384zM413 238q-48 -1 -86.5 -3.5t-73.5 -7.5q-21 -3 -41.5 -8.5t-37 -15
t-26.5 -24t-10 -35.5q0 -41 25.5 -59.5t72.5 -18.5q50 0 92.5 14t84.5 52v106z" />
    <glyph glyph-name="afii10065.alt1" horiz-adv-x="602" 
d="M79 466q56 23 103.5 33.5t109.5 10.5q111 0 163.5 -41t52.5 -133v-209q0 -36 12 -48.5t50 -12.5v-66q-17 -5 -31.5 -7.5t-34.5 -2.5q-31 0 -49 22t-21 60q-69 -82 -206 -82q-88 0 -133.5 39.5t-45.5 107.5q0 40 16 68t43 46.5t63 28.5t75 15q38 5 79.5 7.5t92.5 3.5v27
q0 52 -28.5 76t-101.5 24q-94 0 -189 -41zM418 238q-50 -1 -90 -3t-74 -8q-54 -9 -82.5 -27.5t-28.5 -57.5q0 -41 25.5 -58.5t72.5 -17.5q50 0 92.5 15t84.5 51v106z" />
    <glyph glyph-name="afii10065.sc" horiz-adv-x="642" 
d="M375 560l242 -560h-94l-71 162h-266l-69 -162h-92l244 560h106zM217 239h204l-98 244h-6z" />
    <glyph glyph-name="afii10066.sc" horiz-adv-x="535" 
d="M439 560v-74h-283v-134h110q51 0 92 -11.5t70.5 -34t45.5 -55.5t16 -76q0 -42 -16.5 -74.5t-46 -55t-70 -34t-88.5 -11.5h-204v560h374zM156 75h102q76 0 108.5 22t32.5 78q0 60 -37.5 81.5t-106.5 21.5h-99v-203z" />
    <glyph glyph-name="afii10067.sc" horiz-adv-x="526" 
d="M281 560q34 0 66 -10t56 -29t38.5 -47t14.5 -64q0 -32 -16 -61t-46 -45v-4q45 -16 68.5 -53.5t23.5 -83.5q0 -39 -15.5 -69t-41.5 -51t-59.5 -32t-70.5 -11h-234v560h216zM155 72h121q27 0 49.5 4t38.5 14.5t24.5 28t8.5 43.5q0 42 -25.5 67.5t-73.5 25.5h-143v-183z
M155 325h115q18 0 35.5 4t31 13t21.5 24.5t8 38.5q0 82 -106 82h-105v-162z" />
    <glyph glyph-name="afii10068.sc" horiz-adv-x="451" 
d="M426 560v-76h-270v-484h-91v560h361z" />
    <glyph glyph-name="afii10069.sc" horiz-adv-x="679" 
d="M574 560v-485h65l-7 -207h-69l-9 132h-431l-13 -132h-70v205q39 8 63 38t39 70q15 41 23.5 91.5t8.5 108.5v179h400zM264 390q0 -63 -8 -116.5t-22 -96.5q-11 -33 -26 -58.5t-34 -43.5h308v411h-218v-96z" />
    <glyph glyph-name="afii10070.sc" horiz-adv-x="508" 
d="M65 560h381v-74h-290v-155h265v-74h-265v-182h302v-75h-393v560z" />
    <glyph glyph-name="afii10071.sc" horiz-adv-x="508" 
d="M65 560h381v-74h-290v-155h265v-74h-265v-182h302v-75h-393v560zM152 749q31 0 47.5 -17t16.5 -44q0 -26 -16.5 -43t-47.5 -17q-29 0 -45.5 17t-16.5 43q0 27 16.5 44t45.5 17zM371 749q29 0 46 -17t17 -44q0 -26 -17 -43t-46 -17t-46 17t-17 43q0 27 17 44t46 17z" />
    <glyph glyph-name="afii10072.77.liga" horiz-adv-x="1431" 
d="M489 312h96l66 126q20 38 51.5 54t73.5 16q34 0 55 -11l-16 -69q-19 4 -35 4q-24 0 -38.5 -11t-25.5 -32l-59 -112l98 -142q26 -37 52 -51t56 -14q26 0 43.5 8t31.5 23q16 18 24.5 44t13 59t5.5 71.5t1 80.5v144h384v-500h-92v426h-204v-80q0 -103 -14 -179.5t-59 -126.5
q-20 -23 -58 -35.5t-76 -12.5q-40 0 -69 8t-50.5 22t-38 33t-31.5 42l-94 143h-91v-240h-90v240h-96l-159 -240h-104l190 279l-60 109q-12 22 -26 33t-34 11q-17 0 -34 -4l-15 69q11 5 26 8t33 3q42 0 69.5 -17.5t46.5 -52.5l67 -126h96v188h90v-188z" />
    <glyph glyph-name="afii10072.sc" horiz-adv-x="848" 
d="M469 560v-210h88l81 152q20 38 50.5 52t67.5 14q29 0 61 -9l-14 -73q-6 2 -13.5 3t-15.5 1q-23 0 -38 -6t-29 -32l-79 -137l205 -315h-103l-174 276h-87v-276h-90v276h-87l-174 -276h-103l205 315l-80 137q-15 26 -29.5 32t-37.5 6q-8 0 -15.5 -1t-13.5 -3l-14 73
q31 9 61 9q37 0 67.5 -14t50.5 -52l82 -152h88v210h90z" />
    <glyph glyph-name="afii10073.sc" horiz-adv-x="518" 
d="M252 334q50 0 77 23.5t27 61.5q0 31 -27.5 55.5t-85.5 24.5q-43 0 -76.5 -12t-71.5 -38l-36 61q43 32 86 46t100 14q93 0 147 -40.5t54 -106.5q0 -37 -18.5 -66t-53.5 -45v-4q48 -15 73.5 -51t25.5 -86q0 -42 -17 -75.5t-47 -57t-71.5 -36t-91.5 -12.5q-67 0 -116 13
t-94 46l32 70q45 -29 83.5 -41.5t87.5 -12.5q31 0 57 5.5t45 17.5t29.5 32t10.5 49q0 95 -118 95h-108v70h97z" />
    <glyph glyph-name="afii10074.sc" horiz-adv-x="640" 
d="M155 560v-425l337 425h83v-560h-90v424l-337 -424h-83v560h90z" />
    <glyph glyph-name="afii10075.sc" horiz-adv-x="640" 
d="M155 560v-425l337 425h83v-560h-90v424l-337 -424h-83v560h90zM224 750q14 -29 39.5 -44t56.5 -15q68 0 97 59l60 -27q-17 -53 -58.5 -79t-98.5 -26q-56 0 -98.5 27t-57.5 78z" />
    <glyph glyph-name="afii10076.77.liga" horiz-adv-x="1128" 
d="M158 500v-185h124l70 123q22 38 52.5 54t72.5 16q34 0 55 -11l-16 -74q-19 4 -35 4q-24 0 -37.5 -11t-26.5 -32l-63 -107l98 -142q26 -37 52 -51t56 -14q26 0 43.5 8t31.5 23q16 18 24.5 44t13 59t5.5 71.5t1 80.5v144h384v-500h-92v426h-204v-80q0 -103 -14 -179.5
t-59 -126.5q-20 -23 -58 -35.5t-76 -12.5q-40 0 -69 8t-50.5 22t-38 33t-31.5 42l-94 143h-119v-240h-93v500h93z" />
    <glyph glyph-name="afii10076.sc" horiz-adv-x="569" 
d="M156 560v-206h101l94 144q22 34 54.5 52t69.5 18q16 0 30.5 -1.5t30.5 -6.5l-16 -74q-7 2 -14.5 3t-15.5 1q-23 0 -38.5 -9t-32.5 -33l-87 -129l227 -319h-107l-196 280h-100v-280h-91v560h91z" />
    <glyph glyph-name="afii10077.sc" horiz-adv-x="662" 
d="M597 560v-560h-91v486h-227v-118q0 -97 -14 -169t-37 -118t-61.5 -67.5t-84.5 -21.5q-21 0 -37.5 2.5t-31.5 9.5l12 76q25 -9 48 -9q24 0 42.5 10.5t31.5 37.5q19 40 30.5 108t11.5 176v157h408z" />
    <glyph glyph-name="afii10078.sc" horiz-adv-x="712" 
d="M171 560l185 -259l187 259h103v-560h-89v437h-5l-180 -249h-34l-180 249h-5v-437h-88v560h106z" />
    <glyph glyph-name="afii10079.sc" horiz-adv-x="623" 
d="M156 560v-230h311v230h91v-560h-91v254h-311v-254h-91v560h91z" />
    <glyph glyph-name="afii10080.sc" horiz-adv-x="681" 
d="M641 280q0 -65 -23 -118t-63.5 -91.5t-95.5 -59.5t-119 -21t-119 21t-95 59.5t-63 91.5t-23 118q0 64 23 117.5t63 92t95 59.5t119 21q65 0 120 -21t95.5 -59.5t63 -92t22.5 -117.5zM132 280q0 -52 16.5 -91.5t45 -66.5t66.5 -40.5t80 -13.5q43 0 80.5 13t66 39.5
t45 66.5t16.5 93t-16.5 93t-45 66.5t-66 39.5t-80.5 13q-42 0 -80 -13t-66.5 -39.5t-45 -66.5t-16.5 -93z" />
    <glyph glyph-name="afii10081.sc" horiz-adv-x="625" 
d="M560 560v-560h-91v484h-313v-484h-91v560h495z" />
    <glyph glyph-name="afii10082.sc" horiz-adv-x="543" 
d="M298 560q46 0 84 -13t65 -36.5t41.5 -55.5t14.5 -71q0 -44 -16 -78t-44.5 -57t-67 -34.5t-83.5 -11.5h-137v-203h-90v560h233zM155 278h130q60 0 93 23.5t33 82.5q0 55 -32.5 78t-104.5 23h-119v-207z" />
    <glyph glyph-name="afii10083.sc" horiz-adv-x="582" 
d="M497 437q-36 31 -76.5 43t-86.5 12q-50 0 -89 -15.5t-65 -43.5t-39.5 -67t-13.5 -85q0 -50 16 -89t44 -66t66.5 -41t83.5 -14q51 0 93 11.5t82 40.5l25 -77q-46 -32 -95 -44t-114 -12q-56 0 -109 17.5t-94 53t-65.5 90.5t-24.5 130q0 65 24 118.5t65 91.5t96.5 58.5
t117.5 20.5q63 0 108.5 -15t90.5 -47z" />
    <glyph glyph-name="afii10084.sc" horiz-adv-x="496" 
d="M466 560v-75h-172v-485h-92v485h-172v75h436z" />
    <glyph glyph-name="afii10085.sc" horiz-adv-x="629" 
d="M128 560l203 -444h5l171 444h97l-218 -532q-32 -78 -70 -116.5t-100 -38.5q-23 0 -40 5t-32 16l10 74q14 -9 27 -12.5t25 -3.5q29 0 49.5 13t34.5 53l-265 542h103z" />
    <glyph glyph-name="afii10086.sc" horiz-adv-x="775" 
d="M433 570v-71q17 4 36 5.5t39 1.5q53 0 95 -18t71.5 -48t45 -70t15.5 -85t-15.5 -85.5t-45 -70.5t-71.5 -48t-95 -18q-21 0 -40 2.5t-35 7.5v-73h-90v73q-17 -5 -35 -7.5t-41 -2.5q-53 0 -95 18t-71.5 48t-45 70.5t-15.5 85.5t15.5 85t45 70t71.5 48t95 18q22 0 40.5 -2
t35.5 -5v71h90zM343 426q-32 7 -77 7q-65 0 -100.5 -39t-35.5 -109q0 -71 35.5 -109t100.5 -38q25 0 42.5 1.5t34.5 6.5v280zM433 146q17 -5 34.5 -6.5t42.5 -1.5q64 0 99.5 38t35.5 109q0 70 -35.5 109t-99.5 39q-21 0 -41 -1.5t-36 -5.5v-280z" />
    <glyph glyph-name="afii10087.sc" horiz-adv-x="623" 
d="M149 560l164 -222l160 222h109l-209 -270l225 -290h-113l-175 241l-176 -241h-109l224 288l-210 272h110z" />
    <glyph glyph-name="afii10088.sc" horiz-adv-x="626" 
d="M65 560h90v-485h299v485h90v-485h57l-8 -207h-73l-8 132h-447v560z" />
    <glyph glyph-name="afii10089.sc" horiz-adv-x="575" 
d="M419 0v176q-34 -6 -61 -8.5t-63 -2.5q-48 0 -92.5 12t-78 40t-54 74.5t-20.5 115.5v153h90v-152q0 -42 9.5 -73.5t31.5 -52.5t58 -31.5t90 -10.5q26 0 46.5 2t43.5 7v311h91v-560h-91z" />
    <glyph glyph-name="afii10090.sc" horiz-adv-x="850" 
d="M155 560v-485h225v485h90v-485h225v485h90v-560h-720v560h90z" />
    <glyph glyph-name="afii10091.sc" horiz-adv-x="861" 
d="M155 560v-485h222v485h90v-485h222v485h90v-485h57l-8 -207h-73l-8 132h-682v560h90z" />
    <glyph glyph-name="afii10092.sc" horiz-adv-x="618" 
d="M227 560v-209h156q38 0 73.5 -11.5t62.5 -34t43 -55.5t16 -75q0 -41 -17 -73t-44.5 -55t-63 -35t-72.5 -12h-245v485l-111 4v71h202zM227 75h134q27 0 50.5 5.5t40.5 17.5t26.5 31t9.5 47q0 30 -10.5 49.5t-28.5 31t-41.5 15.5t-48.5 4h-132v-201z" />
    <glyph glyph-name="afii10093.sc" horiz-adv-x="731" 
d="M575 560h91v-560h-91v560zM156 560v-209h160q38 0 73.5 -11.5t62.5 -34t43 -55.5t16 -75q0 -41 -17 -73t-44.5 -55t-63 -35t-72.5 -12h-249v560h91zM156 75h138q26 0 49 5.5t40.5 17.5t27.5 31t10 47q0 30 -11 49.5t-29.5 31t-41.5 15.5t-47 4h-136v-201z" />
    <glyph glyph-name="afii10094.sc" horiz-adv-x="551" 
d="M156 560v-209h160q38 0 73.5 -11.5t62.5 -34t43 -55.5t16 -75q0 -41 -17 -73t-44.5 -55t-63 -35t-72.5 -12h-249v560h91zM156 75h138q26 0 49 5.5t40.5 17.5t27.5 31t10 47q0 30 -11 49.5t-29.5 31t-41.5 15.5t-47 4h-136v-201z" />
    <glyph glyph-name="afii10095.sc" horiz-adv-x="582" 
d="M448 325q-9 77 -61.5 124t-143.5 47q-46 0 -87.5 -12.5t-80.5 -41.5l-35 66q45 32 92.5 47t106.5 15q70 0 126 -20t95.5 -57.5t60.5 -91t21 -120.5q0 -71 -24 -125.5t-64 -91.5t-93 -55.5t-111 -18.5q-34 0 -62.5 2.5t-54 8.5t-49.5 16.5t-49 25.5l25 76q24 -16 45 -26.5
t42 -16.5t44 -8.5t50 -2.5q91 0 146.5 49t61.5 137h-295v74h294z" />
    <glyph glyph-name="afii10096.sc" horiz-adv-x="877" 
d="M156 560v-232h97q7 56 32.5 101t63.5 76.5t88 48t107 16.5q63 0 116.5 -20t93 -57.5t61.5 -91.5t22 -121t-22 -120.5t-61.5 -91t-93 -58t-116.5 -20.5q-65 0 -118 19t-90.5 53.5t-59.5 83.5t-25 108h-95v-254h-91v560h91zM343 280q0 -52 15.5 -92t42.5 -67.5t63.5 -41.5
t79.5 -14t79.5 14t63.5 41.5t42.5 67.5t15.5 92t-15.5 92t-42.5 67.5t-63.5 41.5t-79.5 14q-44 0 -80.5 -14t-63.5 -41.5t-42 -67.5t-15 -92z" />
    <glyph glyph-name="afii10097.sc" horiz-adv-x="572" 
d="M507 0h-90v223h-117l-165 -223h-105l176 231q-60 14 -97.5 56t-37.5 108q0 36 15 66.5t42 52t64 34t81 12.5h234v-560zM295 485q-63 0 -98 -19.5t-35 -70.5q0 -55 34 -76t88 -21h133v187h-122z" />
    <glyph glyph-name="afii10098.sc" horiz-adv-x="451" 
d="M338 560l9 90h73l6 -166h-270v-484h-91v560h273z" />
    <glyph glyph-name="afii10099.sc" horiz-adv-x="718" 
d="M492 560v-75h-195v-123q29 18 69.5 28t81.5 10q100 0 155 -54t55 -148v-145q0 -46 -10.5 -82t-29.5 -63t-44 -44.5t-53 -25.5l-42 64q43 20 66 57t23 93v139q0 71 -34.5 100.5t-94.5 29.5q-34 0 -73 -9t-69 -29v-283h-91v485h-176v75h462z" />
    <glyph glyph-name="afii10100.sc" horiz-adv-x="451" 
d="M426 560v-76h-270v-484h-91v560h361zM309 802l78 -47l-98 -136h-69z" />
    <glyph glyph-name="afii10101.sc" horiz-adv-x="582" 
d="M431 251h-303q5 -43 22.5 -76.5t45 -56.5t63.5 -35t78 -12q51 0 93 12t82 41l25 -78q-46 -32 -95 -44t-114 -12q-56 0 -109 17.5t-94 53t-65.5 90.5t-24.5 130q0 65 24 118.5t65 91.5t96.5 58.5t117.5 20.5q63 0 108.5 -15t90.5 -47l-40 -71q-36 31 -76.5 43t-86.5 12
q-89 0 -140.5 -46t-63.5 -121h301v-74z" />
    <glyph glyph-name="afii10102.sc" horiz-adv-x="500" 
d="M394 447q-41 28 -74.5 39t-75.5 11q-54 0 -78 -21.5t-24 -52.5t16.5 -46.5t51.5 -24.5l93 -24q37 -10 66 -23.5t49.5 -33.5t31 -47.5t10.5 -66.5q0 -35 -13.5 -65.5t-40.5 -53t-67.5 -35.5t-95.5 -13q-32 0 -58.5 2.5t-50.5 8.5t-47 15.5t-47 24.5l31 80
q24 -15 44.5 -25.5t40.5 -17t42 -9.5t49 -3q63 0 95 23.5t32 66.5q0 42 -23 61.5t-76 32.5l-101 24q-59 14 -89.5 51t-30.5 96q0 66 50 107.5t137 41.5q58 0 105 -12.5t86 -39.5z" />
    <glyph glyph-name="afii10103.sc" horiz-adv-x="221" 
d="M156 560v-560h-91v560h91z" />
    <glyph glyph-name="afii10104.sc" horiz-adv-x="221" 
d="M156 560v-560h-91v560h91zM1 749q31 0 47.5 -17t16.5 -44q0 -26 -16.5 -43t-47.5 -17q-29 0 -45.5 17t-16.5 43q0 27 16.5 44t45.5 17zM220 749q29 0 46 -17t17 -44q0 -26 -17 -43t-46 -17t-46 17t-17 43q0 27 17 44t46 17z" />
    <glyph glyph-name="afii10105.sc" horiz-adv-x="231" 
d="M166 560v-548q0 -45 -13 -86t-39.5 -73.5t-66.5 -54.5t-94 -28l-24 77q76 13 111 52.5t35 119.5v541h91z" />
    <glyph glyph-name="afii10106.sc" horiz-adv-x="942" 
d="M567 560v-209h140q38 0 73.5 -11.5t62.5 -34t43 -55.5t16 -75q0 -41 -17 -73t-44.5 -55t-63 -35t-72.5 -12h-229v486h-197v-118q0 -97 -14 -169t-37 -118t-61.5 -67.5t-84.5 -21.5q-21 0 -37.5 2.5t-31.5 9.5l12 76q25 -9 48 -9q24 0 42.5 10.5t31.5 37.5q19 40 30.5 108
t11.5 176v157h378zM567 75h118q26 0 49 5.5t40.5 17.5t27.5 31t10 47q0 30 -11 49.5t-29.5 31t-41.5 15.5t-47 4h-116v-201z" />
    <glyph glyph-name="afii10107.sc" horiz-adv-x="903" 
d="M156 560v-209h281v209h91v-209h140q38 0 73.5 -11.5t62.5 -34t43 -55.5t16 -75q0 -41 -17 -73t-44.5 -55t-63 -35t-72.5 -12h-229v276h-281v-276h-91v560h91zM528 75h118q26 0 49 5.5t40.5 17.5t27.5 31t10 47q0 30 -11 49.5t-29.5 31t-41.5 15.5t-47 4h-116v-201z" />
    <glyph glyph-name="afii10108.sc" horiz-adv-x="718" 
d="M492 560v-75h-195v-123q29 18 69.5 28t81.5 10q100 0 155 -54t55 -148v-198h-90v191q0 71 -34.5 100.5t-94.5 29.5q-34 0 -73 -9t-69 -29v-283h-91v485h-176v75h462z" />
    <glyph glyph-name="afii10109.sc" horiz-adv-x="569" 
d="M156 560v-206h101l94 144q22 34 54.5 52t69.5 18q16 0 30.5 -1.5t30.5 -6.5l-16 -74q-7 2 -14.5 3t-15.5 1q-23 0 -38.5 -9t-32.5 -33l-87 -129l227 -319h-107l-196 280h-100v-280h-91v560h91zM326 802l78 -47l-98 -136h-69z" />
    <glyph glyph-name="afii10110.sc" horiz-adv-x="629" 
d="M128 560l203 -444h5l171 444h97l-218 -532q-32 -78 -70 -116.5t-100 -38.5q-23 0 -40 5t-32 16l10 74q14 -9 27 -12.5t25 -3.5q29 0 49.5 13t34.5 53l-265 542h103zM218 740q14 -29 39.5 -44t56.5 -15q68 0 97 59l60 -27q-17 -53 -58.5 -79t-98.5 -26q-56 0 -98.5 27
t-57.5 78z" />
    <glyph glyph-name="afii10193.sc" horiz-adv-x="615" 
d="M263 0h-198v560h91v-484h303v484h91v-560h-198l-9 -132h-71z" />
    <glyph glyph-name="agrave.alt1" horiz-adv-x="602" 
d="M79 466q56 23 103.5 33.5t109.5 10.5q111 0 163.5 -41t52.5 -133v-209q0 -36 12 -48.5t50 -12.5v-66q-17 -5 -31.5 -7.5t-34.5 -2.5q-31 0 -49 22t-21 60q-69 -82 -206 -82q-88 0 -133.5 39.5t-45.5 107.5q0 40 16 68t43 46.5t63 28.5t75 15q38 5 79.5 7.5t92.5 3.5v27
q0 52 -28.5 76t-101.5 24q-94 0 -189 -41zM418 238q-50 -1 -90 -3t-74 -8q-54 -9 -82.5 -27.5t-28.5 -57.5q0 -41 25.5 -58.5t72.5 -17.5q50 0 92.5 15t84.5 51v106zM322 563h-64l-103 136l73 47z" />
    <glyph glyph-name="agrave.sc" horiz-adv-x="642" 
d="M375 560l242 -560h-94l-71 162h-266l-69 -162h-92l244 560h106zM217 239h204l-98 244h-6zM347 619h-69l-98 136l78 47z" />
    <glyph glyph-name="amacron.alt1" horiz-adv-x="602" 
d="M79 466q56 23 103.5 33.5t109.5 10.5q111 0 163.5 -41t52.5 -133v-209q0 -36 12 -48.5t50 -12.5v-66q-17 -5 -31.5 -7.5t-34.5 -2.5q-31 0 -49 22t-21 60q-69 -82 -206 -82q-88 0 -133.5 39.5t-45.5 107.5q0 40 16 68t43 46.5t63 28.5t75 15q38 5 79.5 7.5t92.5 3.5v27
q0 52 -28.5 76t-101.5 24q-94 0 -189 -41zM418 238q-50 -1 -90 -3t-74 -8q-54 -9 -82.5 -27.5t-28.5 -57.5q0 -41 25.5 -58.5t72.5 -17.5q50 0 92.5 15t84.5 51v106zM447 642v-70h-314v70h314z" />
    <glyph glyph-name="amacron.sc" horiz-adv-x="642" 
d="M375 560l242 -560h-94l-71 162h-266l-69 -162h-92l244 560h106zM217 239h204l-98 244h-6zM484 705v-73h-326v73h326z" />
    <glyph glyph-name="ampersand.sc" horiz-adv-x="663" 
d="M617 384v-67h-44q-2 -66 -13 -112.5t-34 -84.5q26 -24 53 -35t59 -12l-6 -79q-50 0 -87 15t-73 47q-42 -35 -91 -50.5t-102 -15.5q-113 0 -176 50t-63 147q0 54 29.5 93t79.5 64q-21 20 -30 42.5t-9 51.5q0 26 13 50t37 42t57.5 29t74.5 11q46 0 83.5 -9.5t81.5 -35.5
l-39 -65q-30 22 -58.5 31.5t-63.5 9.5q-51 0 -77 -19t-26 -48q0 -23 10 -38.5t32 -34.5l229 -191q18 35 24 66t6 72l-81 19l8 57h196zM197 293q-32 -16 -49.5 -42.5t-17.5 -62.5q0 -31 11.5 -54.5t32 -39t47.5 -23.5t57 -8q47 0 78 11t59 34z" />
    <glyph glyph-name="aogonek.alt1" horiz-adv-x="602" 
d="M79 466q56 23 103.5 33.5t109.5 10.5q111 0 163.5 -41t52.5 -133v-209q0 -36 12 -48.5t50 -12.5v-66q-30 -15 -39.5 -31.5t-9.5 -35.5q0 -16 9 -26.5t35 -10.5q14 0 29 4l-17 -65q-9 -2 -17.5 -3t-16.5 -1q-51 0 -72.5 24t-21.5 59q0 22 10 43.5t33 37.5q-26 5 -41 24.5
t-17 52.5q-69 -82 -206 -82q-88 0 -133.5 39.5t-45.5 107.5q0 40 16 68t43 46.5t63 28.5t75 15q38 5 79.5 7.5t92.5 3.5v27q0 52 -28.5 76t-101.5 24q-94 0 -189 -41zM418 238q-50 -1 -90 -3t-74 -8q-54 -9 -82.5 -27.5t-28.5 -57.5q0 -41 25.5 -58.5t72.5 -17.5
q50 0 92.5 15t84.5 51v106z" />
    <glyph glyph-name="aogonek.sc" horiz-adv-x="642" 
d="M375 560l242 -560q-32 -17 -43 -34.5t-11 -37.5q0 -17 10.5 -30.5t38.5 -13.5q7 0 14.5 1t16.5 4l-16 -65q-10 -2 -19.5 -3t-17.5 -1q-48 0 -76 24.5t-28 62.5q0 25 13.5 51.5t43.5 41.5h-20l-71 162h-267l-68 -162h-92l244 560h106zM216 239h205l-98 244h-9z" />
    <glyph glyph-name="approxequal.case" horiz-adv-x="437" 
d="M40 219q22 24 49 36t63 12q25 0 40.5 -6t28.5 -13.5t26 -13.5t33 -6q21 0 35.5 7t31.5 24l41 -50q-23 -29 -48 -42.5t-59 -13.5q-23 0 -40 6.5t-32 14t-30 14t-33 6.5q-26 0 -44 -9.5t-34 -29.5zM40 357q22 24 49 36t63 12q25 0 40.5 -6t28.5 -13.5t26 -13.5t33 -6
q21 0 35.5 7t31.5 24l41 -50q-23 -29 -48 -42.5t-59 -13.5q-23 0 -40 6.5t-32 14t-30 14t-33 6.5q-26 0 -44 -9.5t-34 -29.5z" />
    <glyph glyph-name="aring.alt1" horiz-adv-x="602" 
d="M79 466q56 23 103.5 33.5t109.5 10.5q111 0 163.5 -41t52.5 -133v-209q0 -36 12 -48.5t50 -12.5v-66q-17 -5 -31.5 -7.5t-34.5 -2.5q-31 0 -49 22t-21 60q-69 -82 -206 -82q-88 0 -133.5 39.5t-45.5 107.5q0 40 16 68t43 46.5t63 28.5t75 15q38 5 79.5 7.5t92.5 3.5v27
q0 52 -28.5 76t-101.5 24q-94 0 -189 -41zM418 238q-50 -1 -90 -3t-74 -8q-54 -9 -82.5 -27.5t-28.5 -57.5q0 -41 25.5 -58.5t72.5 -17.5q50 0 92.5 15t84.5 51v106zM294 549q-21 0 -40.5 6.5t-35 19.5t-24.5 32t-9 45q0 23 8.5 42t23.5 32.5t35 21t42 7.5q20 0 39.5 -7
t35 -20t25 -32t9.5 -44q0 -26 -9 -45.5t-24 -32t-35 -19t-41 -6.5zM294 603q22 0 37 13t15 36q0 21 -14.5 34.5t-37.5 13.5q-21 0 -36.5 -13.5t-15.5 -34.5t14.5 -35t37.5 -14z" />
    <glyph glyph-name="aring.sc" horiz-adv-x="642" 
d="M375 560l242 -560h-94l-71 162h-266l-69 -162h-92l244 560h106zM217 239h204l-98 244h-6zM321 595q-52 0 -84.5 31.5t-32.5 80.5q0 23 9 43.5t24.5 35.5t37 23.5t46.5 8.5t46.5 -8.5t37 -23.5t24.5 -35.5t9 -43.5q0 -50 -33 -81t-84 -31zM377 707q0 24 -16 39.5t-40 15.5
t-40.5 -15.5t-16.5 -39.5t16.5 -40t40.5 -16t40 16t16 40z" />
    <glyph glyph-name="asciitilde.case" horiz-adv-x="445" 
d="M30 276q23 25 51.5 37.5t67.5 12.5q26 0 44.5 -6t34.5 -13.5t32.5 -13.5t37.5 -6q23 0 39.5 7t33.5 24l41 -50q-26 -31 -51.5 -44.5t-63.5 -13.5q-22 0 -41.5 6.5t-37.5 15t-36.5 15t-38.5 6.5q-29 0 -49.5 -9.5t-35.5 -29.5z" />
    <glyph glyph-name="at.case" horiz-adv-x="769" 
d="M496 198q-47 -59 -128 -59q-78 0 -121 48t-43 124q0 33 13 63.5t36.5 53.5t56.5 36.5t73 13.5q33 0 57.5 -8.5t47.5 -25.5l24 24l35 -7v-187q0 -30 12.5 -45t35.5 -15q30 0 43.5 30t13.5 81q0 57 -19.5 101.5t-53.5 75t-80 46.5t-99 16q-58 0 -108.5 -17t-88 -50t-59 -80
t-21.5 -107q0 -59 19 -106t53 -79t81.5 -49t103.5 -17q64 0 116.5 11t95.5 35l24 -70q-53 -23 -110 -35.5t-126 -12.5t-131 20.5t-108.5 61t-73.5 101t-27 140.5q0 74 28 134.5t77 103t114.5 66t140.5 23.5q67 0 127.5 -21.5t106 -61.5t72.5 -98t27 -131q0 -81 -37.5 -127.5
t-106.5 -46.5q-67 0 -93 47zM474 388q-19 15 -39.5 20t-46.5 5q-50 0 -77 -27.5t-27 -75.5t22.5 -74.5t67.5 -26.5q64 0 100 45v134z" />
    <glyph glyph-name="atilde.alt1" horiz-adv-x="602" 
d="M79 466q56 23 103.5 33.5t109.5 10.5q111 0 163.5 -41t52.5 -133v-209q0 -36 12 -48.5t50 -12.5v-66q-17 -5 -31.5 -7.5t-34.5 -2.5q-31 0 -49 22t-21 60q-69 -82 -206 -82q-88 0 -133.5 39.5t-45.5 107.5q0 40 16 68t43 46.5t63 28.5t75 15q38 5 79.5 7.5t92.5 3.5v27
q0 52 -28.5 76t-101.5 24q-94 0 -189 -41zM418 238q-50 -1 -90 -3t-74 -8q-54 -9 -82.5 -27.5t-28.5 -57.5q0 -41 25.5 -58.5t72.5 -17.5q50 0 92.5 15t84.5 51v106zM110 625q43 48 114 48q25 0 41.5 -6t30.5 -13.5t28 -13.5t34 -6q21 0 36 7t32 24l41 -46
q-23 -29 -48.5 -42.5t-59.5 -13.5q-23 0 -40.5 6.5t-34 14t-32.5 14t-34 6.5q-26 0 -45 -9.5t-35 -29.5z" />
    <glyph glyph-name="atilde.sc" horiz-adv-x="642" 
d="M375 560l242 -560h-94l-71 162h-266l-69 -162h-92l244 560h106zM217 239h204l-98 244h-6zM140 686q22 22 52.5 33.5t64.5 11.5q24 0 41 -6t32 -12.5t29.5 -12.5t34.5 -6q21 0 36 6t32 23l41 -48q-43 -55 -108 -55q-23 0 -41 6t-35 13.5t-33.5 13.5t-34.5 6q-49 0 -83 -39
z" />
    <glyph glyph-name="b.sc" horiz-adv-x="526" 
d="M281 560q34 0 66 -10t56 -29t38.5 -47t14.5 -64q0 -32 -16 -61t-46 -45v-4q45 -16 68.5 -53.5t23.5 -83.5q0 -39 -15.5 -69t-41.5 -51t-59.5 -32t-70.5 -11h-234v560h216zM155 72h121q27 0 49.5 4t38.5 14.5t24.5 28t8.5 43.5q0 42 -25.5 67.5t-73.5 25.5h-143v-183z
M155 325h115q18 0 35.5 4t31 13t21.5 24.5t8 38.5q0 82 -106 82h-105v-162z" />
    <glyph glyph-name="backslash.case" horiz-adv-x="302" 
d="M302 -70l-77 -25l-241 697l75 25z" />
    <glyph glyph-name="braceleft.case" horiz-adv-x="301" 
d="M271 604h-33q-50 0 -50 -55v-185q0 -33 -13 -61t-38 -38v-4q23 -9 37 -36t14 -59v-189q0 -54 50 -54h33v-73h-42q-59 0 -94.5 33.5t-35.5 96.5v206q0 22 -11 31t-29 9h-29v74h29q18 0 29 9.5t11 30.5v206q0 63 35 96.5t95 33.5h42v-72z" />
    <glyph glyph-name="braceright.case" horiz-adv-x="301" 
d="M30 -75h33q50 0 50 54v185q0 33 13 61t38 38v4q-23 9 -37 36t-14 59v189q0 55 -50 55h-33v72h42q59 0 94.5 -33.5t35.5 -96.5v-206q0 -22 11 -31t29 -9h29v-74h-29q-18 0 -29 -9.5t-11 -30.5v-206q0 -63 -35 -96.5t-95 -33.5h-42v73z" />
    <glyph glyph-name="bracketleft.case" horiz-adv-x="253" 
d="M144 -77h74v-73h-163v826h163v-72h-74v-681z" />
    <glyph glyph-name="bracketright.case" horiz-adv-x="253" 
d="M129 604h-74v72h163v-826h-163v73h74v681z" />
    <glyph glyph-name="bullet.case" horiz-adv-x="254" 
d="M204 250q0 -32 -21.5 -53t-55.5 -21q-35 0 -56 21t-21 53t21.5 53t55.5 21q35 0 56 -21t21 -53z" />
    <glyph glyph-name="c.sc" horiz-adv-x="582" 
d="M497 437q-36 31 -76.5 43t-86.5 12q-50 0 -89 -15.5t-65 -43.5t-39.5 -67t-13.5 -85q0 -50 16 -89t44 -66t66.5 -41t83.5 -14q51 0 93 11.5t82 40.5l25 -77q-46 -32 -95 -44t-114 -12q-56 0 -109 17.5t-94 53t-65.5 90.5t-24.5 130q0 65 24 118.5t65 91.5t96.5 58.5
t117.5 20.5q63 0 108.5 -15t90.5 -47z" />
    <glyph glyph-name="cacute.sc" horiz-adv-x="582" 
d="M497 437q-36 31 -76.5 43t-86.5 12q-50 0 -89 -15.5t-65 -43.5t-39.5 -67t-13.5 -85q0 -50 16 -89t44 -66t66.5 -41t83.5 -14q51 0 93 11.5t82 40.5l25 -77q-46 -32 -95 -44t-114 -12q-56 0 -109 17.5t-94 53t-65.5 90.5t-24.5 130q0 65 24 118.5t65 91.5t96.5 58.5
t117.5 20.5q63 0 108.5 -15t90.5 -47zM381 802l78 -47l-98 -136h-69z" />
    <glyph glyph-name="cb.liga" horiz-adv-x="1168" 
d="M471 403q-33 17 -66.5 25t-71.5 8q-94 0 -146.5 -48t-52.5 -139q0 -41 14.5 -75t40 -58t58.5 -37t71 -13q93 0 170 42l28 -73q-48 -26 -96 -35.5t-107 -9.5q-63 0 -113.5 19.5t-86 54t-54.5 81.5t-19 102q0 59 22.5 107.5t61.5 83t91 53.5t112 19q13 0 25 -0.5t23 -1.5
q-15 30 -15 77q0 35 13.5 64t38 50t58 32.5t73.5 11.5q47 0 84.5 -6.5t79.5 -21.5v-249q38 23 79.5 33.5t92.5 10.5q122 0 185.5 -64t63.5 -191q0 -60 -22.5 -109t-62 -83.5t-93.5 -53.5t-118 -19q-35 0 -64 3t-54.5 9.5t-49.5 16.5t-50 24v617q-38 11 -79 11
q-46 0 -71 -23.5t-25 -64.5q0 -33 14 -60.5t57 -50.5zM707 95q17 -8 31.5 -13t28.5 -8t30 -4.5t36 -1.5q92 0 146.5 47.5t54.5 140.5q0 90 -39 134.5t-124 44.5q-48 0 -88.5 -11t-75.5 -36v-293z" />
    <glyph glyph-name="ccaron.sc" horiz-adv-x="582" 
d="M497 437q-36 31 -76.5 43t-86.5 12q-50 0 -89 -15.5t-65 -43.5t-39.5 -67t-13.5 -85q0 -50 16 -89t44 -66t66.5 -41t83.5 -14q51 0 93 11.5t82 40.5l25 -77q-46 -32 -95 -44t-114 -12q-56 0 -109 17.5t-94 53t-65.5 90.5t-24.5 130q0 65 24 118.5t65 91.5t96.5 58.5
t117.5 20.5q63 0 108.5 -15t90.5 -47zM333 699l132 86l21 -54l-141 -119h-23l-142 119l21 54z" />
    <glyph glyph-name="ccedilla.sc" horiz-adv-x="582" 
d="M497 437q-36 31 -76.5 43t-86.5 12q-50 0 -89 -15.5t-65 -43.5t-39.5 -67t-13.5 -85q0 -50 16 -89t44 -66t66.5 -41t83.5 -14q51 0 93 11.5t82 40.5l25 -77q-43 -30 -88.5 -42t-103.5 -14l-5 -38q35 0 54 -18.5t19 -51.5q0 -28 -14.5 -49.5t-37 -37t-50 -25.5t-52.5 -14
l-13 61q41 7 68 21.5t27 41.5t-36 27h-33l3 87q-48 7 -91.5 28t-76.5 56.5t-52.5 86t-19.5 116.5q0 65 24 118.5t65 91.5t96.5 58.5t117.5 20.5q63 0 108.5 -15t90.5 -47z" />
    <glyph glyph-name="ccircumflex.sc" horiz-adv-x="582" 
d="M497 437q-36 31 -76.5 43t-86.5 12q-50 0 -89 -15.5t-65 -43.5t-39.5 -67t-13.5 -85q0 -50 16 -89t44 -66t66.5 -41t83.5 -14q51 0 93 11.5t82 40.5l25 -77q-46 -32 -95 -44t-114 -12q-56 0 -109 17.5t-94 53t-65.5 90.5t-24.5 130q0 65 24 118.5t65 91.5t96.5 58.5
t117.5 20.5q63 0 108.5 -15t90.5 -47zM332 688l-132 -86l-21 54l141 119h23l142 -119l-21 -54z" />
    <glyph glyph-name="cdotaccent.sc" horiz-adv-x="582" 
d="M497 437q-36 31 -76.5 43t-86.5 12q-50 0 -89 -15.5t-65 -43.5t-39.5 -67t-13.5 -85q0 -50 16 -89t44 -66t66.5 -41t83.5 -14q51 0 93 11.5t82 40.5l25 -77q-46 -32 -95 -44t-114 -12q-56 0 -109 17.5t-94 53t-65.5 90.5t-24.5 130q0 65 24 118.5t65 91.5t96.5 58.5
t117.5 20.5q63 0 108.5 -15t90.5 -47zM338 747q32 0 49.5 -19t17.5 -47q0 -29 -17.5 -46t-49.5 -17t-49 17t-17 46q0 28 17 47t49 19z" />
    <glyph glyph-name="cent.taboldstyle" 
d="M489 403q-33 17 -66.5 25t-71.5 8q-94 0 -146.5 -48t-52.5 -139q0 -41 14.5 -75t40 -58t58.5 -37t71 -13q93 0 170 42l28 -73q-38 -20 -76 -30t-81 -13v-75h-84v75q-54 6 -97.5 27.5t-74 55t-47 77.5t-16.5 95q0 52 18 96t49.5 77.5t74.5 55.5t93 30v71h84v-68
q47 -2 82.5 -11t68.5 -26z" />
    <glyph glyph-name="centoldstyle" horiz-adv-x="548" 
d="M471 403q-33 17 -66.5 25t-71.5 8q-94 0 -146.5 -48t-52.5 -139q0 -41 14.5 -75t40 -58t58.5 -37t71 -13q93 0 170 42l28 -73q-38 -20 -76 -30t-81 -13v-75h-84v75q-54 6 -97.5 27.5t-74 55t-47 77.5t-16.5 95q0 52 18 96t49.5 77.5t74.5 55.5t93 30v71h84v-68
q47 -2 82.5 -11t68.5 -26z" />
    <glyph glyph-name="ch.liga" horiz-adv-x="1155" 
d="M471 403q-33 17 -66.5 25t-71.5 8q-94 0 -146.5 -48t-52.5 -139q0 -41 14.5 -75t40 -58t58.5 -37t71 -13q93 0 170 42l28 -73q-48 -26 -96 -35.5t-107 -9.5q-63 0 -113.5 19.5t-86 54t-54.5 81.5t-19 102q0 59 22.5 107.5t61.5 83t91 53.5t112 19q13 0 25 -0.5t23 -1.5
q-15 30 -15 77q0 35 13.5 64t38 50t58 32.5t73.5 11.5q47 0 84.5 -6.5t79.5 -21.5v-287q35 44 82.5 63t98.5 19q104 0 155.5 -56.5t51.5 -162.5v-291h-93v292q0 66 -25 104t-89 38q-56 0 -100.5 -22t-80.5 -66v-346h-93v660q-18 7 -38 9t-41 2q-46 0 -71 -23.5t-25 -64.5
q0 -33 14 -60.5t57 -50.5z" />
    <glyph glyph-name="ck.liga" horiz-adv-x="1129" 
d="M1070 500l2 -10l-217 -189l227 -293l-3 -8h-105l-190 255l-77 -43v-212h-92v660q-19 6 -39 8.5t-41 2.5q-46 0 -71 -23.5t-25 -64.5q0 -33 14 -60.5t57 -50.5l-39 -69q-33 17 -66.5 25t-71.5 8q-94 0 -146.5 -48t-52.5 -139q0 -41 14.5 -75t40 -58t58.5 -37t71 -13
q93 0 170 42l28 -73q-48 -26 -96 -35.5t-107 -9.5q-63 0 -113.5 19.5t-86 54t-54.5 81.5t-19 102q0 59 22.5 107.5t61.5 83t91 53.5t112 19q13 0 25 -0.5t23 -1.5q-15 30 -15 77q0 35 13.5 64t38 50t58 32.5t73.5 11.5q47 0 84.5 -6.5t79.5 -21.5v-423l80 53l174 155h109z
" />
    <glyph glyph-name="comma.denominator" horiz-adv-x="139" 
d="M20 -63q16 14 25.5 28.5t9.5 30.5q-34 6 -34 43q0 21 12.5 34.5t36.5 13.5q26 0 37.5 -14.5t11.5 -35.5q0 -75 -60 -119z" />
    <glyph glyph-name="comma.numerator" horiz-adv-x="139" 
d="M20 217q16 14 25.5 28.5t9.5 30.5q-34 6 -34 43q0 21 12.5 34.5t36.5 13.5q26 0 37.5 -14.5t11.5 -35.5q0 -75 -60 -119z" />
    <glyph glyph-name="commaaccent" horiz-adv-x="231" 
d="M45 -70q30 14 46 30.5t16 39.5q-30 0 -43.5 16.5t-13.5 37.5q0 10 3 20t10 18.5t18.5 14t28.5 5.5q35 0 53 -25.5t18 -62.5q0 -19 -7 -39.5t-20.5 -39t-34.5 -34t-49 -24.5z" />
    <glyph glyph-name="commaaccent.cap" horiz-adv-x="231" 
d="M45 -68q62 24 62 68q-30 0 -43.5 16.5t-13.5 37.5q0 10 3 20t10 18.5t18.5 14t28.5 5.5q35 0 53 -25.5t18 -62.5q0 -19 -7 -39.5t-20.5 -39t-34.5 -34t-49 -24.5z" />
    <glyph glyph-name="commainferior" horiz-adv-x="139" 
d="M20 -132q16 14 25.5 28.5t9.5 30.5q-34 6 -34 43q0 21 12.5 34.5t36.5 13.5q26 0 37.5 -14.5t11.5 -35.5q0 -75 -60 -119z" />
    </font>
</defs>
</svg>
